<?xml version="1.0" standalone="no"?>
<!DOCTYPE svg PUBLIC "-//W3C//DTD SVG 1.1//EN" "http://www.w3.org/Graphics/SVG/1.1/DTD/svg11.dtd" >
<svg xmlns="http://www.w3.org/2000/svg">
<metadata>Generated by IcoMoon</metadata>
<defs>
<font id="icomoon" horiz-adv-x="1024">
<font-face units-per-em="1024" ascent="960" descent="-64" />
<missing-glyph horiz-adv-x="1024" />
<glyph unicode="&#x20;" horiz-adv-x="512" d="" />
<glyph unicode="&#xe900;" glyph-name="D-Box" d="M799.787 509.184l-298.667 170.667c-6.528 3.755-14.635 3.755-21.163 0l-298.667-170.667c0 0 0 0 0 0l309.248-164.992 309.333 164.907c-0.043 0-0.043 0.043-0.085 0.085zM170.539 149.334c0-7.637 4.096-14.72 10.752-18.517l287.915-164.523v340.907l-298.667 159.36v-317.227zM511.872-33.706l287.915 164.523c6.656 3.797 10.752 10.88 10.752 18.517v317.056l-298.667-159.232v-340.864zM463.104 816.896l6.229 6.272v-76.501c0-11.819 9.557-21.333 21.333-21.333s21.333 9.515 21.333 21.333v76.501l6.229-6.229c8.32-8.32 21.845-8.32 30.165 0s8.32 21.845 0 30.165l-42.539 42.496c-0.427 0.427-0.896 0.896-1.365 1.28v0c-3.285 2.773-7.168 4.437-11.221 4.907 0 0 0 0 0 0-1.323 0.213-2.517 0.256-3.797 0.171 0 0 0 0 0 0-5.035-0.299-9.984-2.347-13.867-6.229l-42.667-42.667c-4.181-4.139-6.272-9.6-6.272-15.061s2.091-10.923 6.229-15.104c8.363-8.32 21.845-8.32 30.208 0zM980.224 56.704v0 0 0.128l-16 58.155c-3.115 11.392-15.019 18.091-26.24 14.891-9.472-2.603-15.701-11.221-15.659-20.565 0-1.835 0.256-3.755 0.768-5.632l2.347-8.491-52.864 30.037c-10.325 5.888-23.296 2.261-29.099-8.021-5.845-10.24-2.261-23.253 8.021-29.099l52.864-30.037-8.533-2.347c-11.349-3.115-18.005-14.891-14.891-26.24 2.603-9.472 11.179-15.659 20.523-15.659 1.877 0 3.797 0.256 5.675 0.768l57.984 16c0.597 0.128 1.152 0.341 1.707 0.512 4.011 1.451 7.381 3.968 9.771 7.168 0.853 1.109 1.579 2.347 2.219 3.584 2.176 4.48 2.773 9.685 1.408 14.848zM108.459 125.227l-52.864-30.037 2.347 8.491c0.512 1.877 0.768 3.797 0.768 5.632 0 9.387-6.187 17.963-15.659 20.565-11.392 3.157-23.125-3.541-26.24-14.891l-16-58.155v-0.085c-1.451-5.205-0.811-10.411 1.323-14.848 0.64-1.237 1.365-2.475 2.219-3.584 2.389-3.157 5.717-5.675 9.685-7.125 0.597-0.213 1.195-0.427 1.835-0.597l57.984-15.957c1.877-0.512 3.797-0.768 5.675-0.768 9.344 0 17.92 6.229 20.523 15.659 3.115 11.349-3.541 23.125-14.891 26.24l-8.533 2.347 52.864 30.037c10.24 5.803 13.824 18.816 8.021 29.099-5.76 10.197-18.773 13.781-29.056 7.979z" />
<glyph unicode="&#xe901;" glyph-name="D-Cube" d="M85.333 149.334c0-7.765 4.224-14.891 10.965-18.688l373.248-207.232v426.965l-384.213 222.293v-423.339zM501.291 807.979c-6.443 3.584-14.293 3.584-20.736 0l-365.739-203.051 376.064-217.6 375.637 217.6-365.227 203.051zM896 149.334v423.339l-383.787-222.293v-426.965l372.821 207.232c6.741 3.797 10.965 10.923 10.965 18.688zM463.445 859.563l6.016 6.016-0.128-33.493c-0.043-11.776 9.472-21.376 21.248-21.419 0.043 0 0.085 0 0.085 0 11.733 0 21.333 9.515 21.333 21.248l0.128 34.176 6.485-6.485c8.32-8.32 21.845-8.32 30.165 0s8.32 21.845 0 30.165l-42.539 42.539c-0.427 0.469-0.896 0.896-1.408 1.323-3.243 2.773-7.125 4.395-11.136 4.907-1.28 0.128-2.603 0.128-3.925 0.085v0c-4.992-0.299-9.899-2.347-13.739-6.187 0 0 0 0-0.043-0.043l-42.667-42.667c-4.181-4.181-6.229-9.643-6.229-15.104s2.091-10.923 6.229-15.104c8.32-8.277 21.803-8.277 30.123 0.043zM960 106.667c-11.776 0-21.333-9.557-21.333-21.333v-12.501l-27.563 27.563c-8.32 8.32-21.845 8.32-30.165 0s-8.32-21.845 0-30.165l27.563-27.563h-8.832c-11.776 0-21.333-9.557-21.333-21.333s9.557-21.333 21.333-21.333h60.16c0.085 0 0.128 0 0.171 0 0.512 0 0.981 0 1.493 0.043 4.309 0.299 8.235 1.877 11.477 4.352 1.152 0.896 2.219 1.92 3.157 2.987l0.043 0.043c3.157 3.669 5.077 8.448 5.163 13.653 0 0.043 0 0.043 0 0.085s0 0.043 0 0.043v0.043c0 0 0 0 0 0.043v64.043c0 11.776-9.557 21.333-21.333 21.333zM100.437 100.438c-8.32 8.32-21.845 8.32-30.165 0l-27.605-27.605v8.832c0 11.776-9.557 21.333-21.333 21.333s-21.333-9.557-21.333-21.333v-60.373c0-0.043 0-0.043 0-0.043v-0.043c0 0 0 0 0-0.043s0-0.043 0-0.085c0.043-5.205 2.005-9.984 5.163-13.653 0 0 0-0.043 0-0.043v0c0.939-1.067 2.005-2.091 3.157-2.987 3.243-2.475 7.168-4.053 11.477-4.352 0.555-0.043 1.024-0.043 1.536-0.043 0.043 0 0.085 0 0.128 0h60.203c11.776 0 21.333 9.557 21.333 21.333s-9.557 21.333-21.333 21.333h-8.832l27.563 27.563c8.363 8.363 8.363 21.845 0.043 30.208z" />
<glyph unicode="&#xe902;" glyph-name="Accessible" d="M895.616 11.563l-30.037 196.907c-8.405 75.733-72.192 132.864-148.395 132.864h-141.44c-11.733 0-21.333 9.6-21.333 21.333v76.501l23.936-23.936c20.096-20.139 46.891-31.232 75.392-31.232h92.629c35.285 0 64 28.715 64 64s-28.715 64-64 64h-67.669c-5.632 0-11.136 2.261-15.104 6.229l-90.496 90.496c-20.139 20.181-46.891 31.275-75.392 31.275h-50.005c-35.285 0-64-28.715-64-64v-256c0-82.347 66.987-149.333 149.333-149.333h134.528c10.453 0 19.328-7.509 21.248-18.816l35.627-164.864c6.997-41.856 42.88-72.277 85.333-72.277 24.576 0 48.043 10.496 64.427 28.8 16.427 18.261 24.277 42.795 21.419 68.053zM597.035 810.667c0-70.692-57.308-128-128-128s-128 57.308-128 128c0 70.692 57.308 128 128 128s128-57.308 128-128zM610.645 126.806c-11.136 3.84-23.296-1.92-27.264-13.013-33.109-93.568-121.941-156.459-221.013-156.459-129.408 0-234.667 105.301-234.667 234.667 0 114.859 82.219 212.053 195.541 231.125 11.605 1.963 19.456 12.971 17.493 24.576s-12.843 19.413-24.576 17.493c-133.931-22.528-231.125-137.429-231.125-273.195 0-152.917 124.416-277.333 277.333-277.333 117.12 0 222.080 74.283 261.248 184.875 3.925 11.136-1.92 23.296-12.971 27.264z" />
<glyph unicode="&#xe903;" glyph-name="Active-Protection" d="M704.043 781.44c-83.157 0-160.939 36.949-213.376 100.181-52.395-63.189-130.176-100.181-213.333-100.181-53.333 0-105.003 15.275-149.333 43.605v-419.712c0-218.539 302.421-408.917 362.667-444.672 60.203 35.755 362.667 226.347 362.667 444.672v419.669c-44.331-28.288-96-43.563-149.291-43.563zM633.813 518.23l-170.795-170.667c-4.011-3.968-9.429-6.229-15.061-6.229 0 0 0 0 0 0-5.632 0-11.093 2.261-15.104 6.229l-85.205 85.333c-8.32 8.363-8.32 21.845 0 30.208 8.32 8.277 21.845 8.32 30.208 0l70.144-70.229 155.691 155.563c8.32 8.32 21.845 8.32 30.165 0s8.32-21.888-0.043-30.208z" />
<glyph unicode="&#xe904;" glyph-name="Add-Event" d="M490.667 170.667h-341.333c-58.795 0-106.667 47.872-106.667 106.667v448h725.333v-277.333c0-11.776 9.557-21.333 21.333-21.333s21.333 9.557 21.333 21.333v298.667c0 82.347-66.987 149.333-149.333 149.333h-64v21.333c0 11.776-9.557 21.333-21.333 21.333s-21.333-9.557-21.333-21.333v-85.333c0-11.776-9.557-21.333-21.333-21.333s-21.333 9.557-21.333 21.333v64h-256v21.333c0 11.776-9.557 21.333-21.333 21.333s-21.333-9.557-21.333-21.333v-85.333c0-11.776-9.557-21.333-21.333-21.333s-21.333 9.557-21.333 21.333v64h-21.333c-82.347 0-149.333-66.987-149.333-149.333v-469.333c0-82.347 66.987-149.333 149.333-149.333h341.333c11.776 0 21.333 9.557 21.333 21.333s-9.557 21.333-21.333 21.333zM789.333 384c-129.408 0-234.667-105.259-234.667-234.667s105.259-234.667 234.667-234.667 234.667 105.259 234.667 234.667-105.259 234.667-234.667 234.667zM874.667 128h-64v-64c0-11.776-9.557-21.333-21.333-21.333s-21.333 9.557-21.333 21.333v64h-64c-11.776 0-21.333 9.557-21.333 21.333s9.557 21.333 21.333 21.333h64v64c0 11.776 9.557 21.333 21.333 21.333s21.333-9.557 21.333-21.333v-64h64c11.776 0 21.333-9.557 21.333-21.333s-9.557-21.333-21.333-21.333zM469.333 597.334h-128c-7.723 0-14.848-4.181-18.645-10.923-0.939-1.749-24.021-43.648-24.021-95.744 0-51.499 36.693-94.592 85.333-104.491v-44.843h-21.333c-11.776 0-21.333-9.557-21.333-21.333s9.557-21.333 21.333-21.333h85.333c11.776 0 21.333 9.557 21.333 21.333s-9.557 21.333-21.333 21.333h-21.333v44.843c48.64 9.899 85.333 52.992 85.333 104.491 0 52.096-23.083 93.995-24.021 95.744-3.797 6.741-10.923 10.923-18.645 10.923z" />
<glyph unicode="&#xe905;" glyph-name="Add-Shopping-Cart" d="M469.333 106.667c0-58.91-47.756-106.667-106.667-106.667s-106.667 47.756-106.667 106.667c0 58.91 47.756 106.667 106.667 106.667s106.667-47.756 106.667-106.667zM503.083 298.667h-120.832c-50.688 0-94.635 36.096-104.619 85.76l-0.384 1.963 373.12 45.227c40.96 23.851 88.32 37.717 138.965 37.717 27.136 0 53.291-4.096 78.080-11.392l62.677 7.595c28.715 3.499 51.584 25.899 55.68 54.485l38.059 266.283c0.896 6.144-0.939 12.331-4.992 16.981s-9.984 7.381-16.171 7.381h-810.24l-22.187 110.848c-2.005 9.984-10.752 17.152-20.907 17.152h-128c-11.776 0-21.333-9.557-21.333-21.333s9.557-21.333 21.333-21.333h110.507l103.979-519.979c13.952-69.504 75.52-120.021 146.432-120.021h120.832c11.776 0 21.333 9.557 21.333 21.333s-9.557 21.333-21.333 21.333zM789.333 426.667c-129.365 0-234.667-105.301-234.667-234.667s105.301-234.667 234.667-234.667 234.667 105.301 234.667 234.667-105.301 234.667-234.667 234.667zM874.667 170.667h-64v-85.333c0-11.776-9.557-21.333-21.333-21.333s-21.333 9.557-21.333 21.333v85.333h-64c-11.776 0-21.333 9.557-21.333 21.333s9.557 21.333 21.333 21.333h64v42.667c0 11.776 9.557 21.333 21.333 21.333s21.333-9.557 21.333-21.333v-42.667h64c11.776 0 21.333-9.557 21.333-21.333s-9.557-21.333-21.333-21.333z" />
<glyph unicode="&#xe906;" glyph-name="Add-User-2" d="M703.36 581.163c-2.347 9.344-8.875 23.040-20.693 31.061v113.109c0 68.736-20.992 96.939-43.093 113.28-4.224 33.109-39.68 100.053-170.24 100.053-132.181 0-213.333-124.245-213.333-213.333v-113.109c-11.819-8.021-18.347-21.717-20.693-31.061-0.427-1.664-0.64-3.413-0.64-5.163 0-35.115 20.523-87.424 22.869-93.269 2.56-6.357 6.315-10.581 12.971-12.245 2.347-1.152 6.827-7.381 6.827-22.485 0-40.533 30.421-85.589 63.061-115.541-4.48-27.947-25.301-101.632-69.803-120.235l-189.355-63.104c-52.011-17.323-69.461-60.928-80.597-105.429-0.427-1.707-0.64-3.456-0.64-5.205v-102.485c0-11.776 9.557-21.333 21.333-21.333h559.147c8.661 0 16.469 5.248 19.755 13.269s1.365 17.237-4.821 23.296c-53.803 52.693-83.413 123.008-83.413 198.101 0 92.971 46.293 179.285 123.904 230.955 2.731 1.835 5.035 4.267 6.699 7.125 12.459 21.675 18.731 42.069 18.731 60.544 0 15.104 4.48 21.333 5.163 21.973 6.656 1.664 12.117 6.4 14.635 12.757 2.347 5.888 22.869 58.197 22.869 93.312 0 1.749-0.213 3.499-0.64 5.163zM789.333 384c-129.408 0-234.667-105.259-234.667-234.667s105.259-234.667 234.667-234.667 234.667 105.259 234.667 234.667-105.259 234.667-234.667 234.667zM874.667 128h-64v-64c0-11.776-9.557-21.333-21.333-21.333s-21.333 9.557-21.333 21.333v64h-64c-11.776 0-21.333 9.557-21.333 21.333s9.557 21.333 21.333 21.333h64v64c0 11.776 9.557 21.333 21.333 21.333s21.333-9.557 21.333-21.333v-64h64c11.776 0 21.333-9.557 21.333-21.333s-9.557-21.333-21.333-21.333z" />
<glyph unicode="&#xe907;" glyph-name="Add-User" d="M512 149.334c0 114.091 71.765 218.112 178.603 258.901 7.125 2.688 12.203 9.003 13.44 16.469 0.256 1.451 0.469 2.859 0.683 4.267 24.363 6.741 43.221 27.605 46.464 53.76l10.667 85.333c2.261 18.005-3.285 36.224-15.232 49.877-6.997 8.021-15.829 14.080-25.6 17.792l3.925 80.341 15.957 16c24.021 25.557 43.947 69.376 2.304 132.949-32.043 48.853-86.4 73.643-161.664 73.643-29.696 0-98.048 0-161.707-42.752-181.76-3.797-206.507-88.235-206.507-170.581 0-19.157 4.651-62.293 7.723-88.32-10.965-3.456-20.949-9.856-28.715-18.645-12.117-13.781-17.792-32.085-15.488-50.304l10.667-85.333c3.499-27.819 24.619-49.707 51.328-54.912 8.832-58.667 37.248-116.224 78.464-158.805l-14.848-59.435-163.413-40.875c-93.568-23.339-139.051-99.456-139.051-232.704 0-5.675 2.261-11.093 6.229-15.104s9.472-6.229 15.104-6.229l559.104 0.043c8.661 0 16.469 5.248 19.755 13.269s1.365 17.237-4.821 23.296c-53.76 52.693-83.371 123.008-83.371 198.059zM789.333 384c-129.408 0-234.667-105.259-234.667-234.667s105.259-234.667 234.667-234.667 234.667 105.259 234.667 234.667-105.259 234.667-234.667 234.667zM874.667 128h-64v-64c0-11.776-9.557-21.333-21.333-21.333s-21.333 9.557-21.333 21.333v64h-64c-11.776 0-21.333 9.557-21.333 21.333s9.557 21.333 21.333 21.333h64v64c0 11.776 9.557 21.333 21.333 21.333s21.333-9.557 21.333-21.333v-64h64c11.776 0 21.333-9.557 21.333-21.333s-9.557-21.333-21.333-21.333z" />
<glyph unicode="&#xe908;" glyph-name="Add-Users" d="M789.333 384c-129.408 0-234.667-105.301-234.667-234.667s105.259-234.667 234.667-234.667 234.667 105.301 234.667 234.667-105.259 234.667-234.667 234.667zM874.667 128h-64v-64c0-11.776-9.557-21.333-21.333-21.333s-21.333 9.557-21.333 21.333v64h-64c-11.776 0-21.333 9.557-21.333 21.333s9.557 21.333 21.333 21.333h64v64c0 11.776 9.557 21.333 21.333 21.333s21.333-9.557 21.333-21.333v-64h64c11.776 0 21.333-9.557 21.333-21.333s-9.557-21.333-21.333-21.333zM640.171 590.080c-3.029-24.277-15.147-46.293-34.219-61.952-3.371-2.731-5.803-6.443-6.955-10.667-6.101-21.504-14.933-42.368-26.197-61.909-3.328-5.803-3.755-12.843-1.152-18.987 2.645-6.187 7.979-10.752 14.464-12.373l53.76-13.397c6.059-1.536 11.733-3.755 17.451-5.888l5.163-1.92c2.389-0.896 4.864-1.323 7.381-1.323 2.901 0 5.845 0.597 8.576 1.792 19.712 8.661 41.003 15.019 63.36 18.816 4.096 0.768 7.936 2.645 10.965 5.461 34.603 32.427 58.667 77.952 66.347 124.416 18.389 6.528 32.256 22.997 34.773 43.264l7.893 63.104c1.835 14.891-2.731 29.909-12.587 41.259-4.864 5.547-10.795 9.941-17.365 13.056l2.645 53.376 10.368 10.411c19.157 20.352 35.115 55.083 2.347 105.131-24.875 37.76-66.603 56.917-124.245 56.917-21.163 0-49.323-1.28-79.573-11.563-6.059-2.048-10.88-6.699-13.141-12.715-2.261-5.973-1.707-12.672 1.493-18.219 29.184-50.304 27.008-102.059-5.888-141.952-6.571-8.021-6.485-19.541 0.213-27.392 17.28-20.395 25.301-47.189 21.973-73.643l-7.851-63.104zM598.443 365.952c-2.048 7.381-7.936 13.141-15.36 15.019l-71.083 17.835-8.747 34.816c31.147 31.829 52.651 74.539 59.819 118.485 18.347 6.571 32.213 22.997 34.731 43.264l7.893 63.104c1.835 14.891-2.731 29.909-12.587 41.259-4.864 5.547-10.795 9.941-17.365 13.056l2.645 53.376 10.368 10.411c19.157 20.352 35.115 55.083 2.347 105.131-24.789 37.803-66.517 56.96-124.16 56.96-22.229 0-73.216 0-121.259-31.659-138.496-3.456-156.459-71.979-156.459-131.584 0-13.525 2.987-41.984 5.248-61.525-7.381-3.115-14.037-7.765-19.371-13.867-10.027-11.349-14.72-26.496-12.843-41.557l7.893-63.061c2.688-21.675 18.347-38.955 38.528-44.459 7.125-42.155 27.52-83.328 56.747-114.475l-9.429-37.717-117.547-29.355c-81.536-20.352-138.453-93.269-138.453-177.323 0-11.776 9.557-21.333 21.333-21.333l472.747-0.043c10.624 0 19.584 7.808 21.12 18.304 8.576 59.691 35.456 113.707 77.824 156.16 5.376 5.461 7.467 13.355 5.419 20.779z" />
<glyph unicode="&#xe909;" glyph-name="Add" d="M490.667 938.667c-270.549 0-490.667-220.117-490.667-490.667s220.117-490.667 490.667-490.667 490.667 220.117 490.667 490.667-220.117 490.667-490.667 490.667zM746.667 426.667h-234.667v-234.667c0-11.776-9.557-21.333-21.333-21.333s-21.333 9.557-21.333 21.333v234.667h-234.667c-11.776 0-21.333 9.557-21.333 21.333s9.557 21.333 21.333 21.333h234.667v234.667c0 11.776 9.557 21.333 21.333 21.333s21.333-9.557 21.333-21.333v-234.667h234.667c11.776 0 21.333-9.557 21.333-21.333s-9.557-21.333-21.333-21.333z" />
<glyph unicode="&#xe90a;" glyph-name="Adjustments" d="M192 810.667h-21.333v64c0 11.776-9.557 21.333-21.333 21.333s-21.333-9.557-21.333-21.333v-64h-21.333c-58.837 0-106.667-47.829-106.667-106.667v-85.333c0-58.837 47.829-106.667 106.667-106.667h21.333v-576c0-11.776 9.557-21.333 21.333-21.333s21.333 9.557 21.333 21.333v576h21.333c58.837 0 106.667 47.829 106.667 106.667v85.333c0 58.837-47.829 106.667-106.667 106.667zM874.667 298.667h-21.333v576c0 11.776-9.557 21.333-21.333 21.333s-21.333-9.557-21.333-21.333v-576h-21.333c-58.837 0-106.667-47.829-106.667-106.667v-85.333c0-58.837 47.829-106.667 106.667-106.667h21.333v-64c0-11.776 9.557-21.333 21.333-21.333s21.333 9.557 21.333 21.333v64h21.333c58.837 0 106.667 47.829 106.667 106.667v85.333c0 58.837-47.829 106.667-106.667 106.667zM533.333 554.667h-21.333v320c0 11.776-9.557 21.333-21.333 21.333s-21.333-9.557-21.333-21.333v-320h-21.333c-58.837 0-106.667-47.829-106.667-106.667v-85.333c0-58.837 47.829-106.667 106.667-106.667h21.333v-320c0-11.776 9.557-21.333 21.333-21.333s21.333 9.557 21.333 21.333v320h21.333c58.837 0 106.667 47.829 106.667 106.667v85.333c0 58.837-47.829 106.667-106.667 106.667z" />
<glyph unicode="&#xe90b;" glyph-name="Airplane" d="M992.896 231.936l-395.563 395.52v175.403c0 27.691-6.144 55.595-18.261 81.621l-9.003 17.067c-10.624 22.912-32.853 37.12-58.069 37.12s-47.445-14.208-57.6-36.139l-9.941-18.987c-11.648-25.088-17.792-52.949-17.792-80.683v-175.403l-395.435-395.435c-20.139-20.139-31.232-46.891-31.232-75.392v-50.005c0-7.808 4.267-14.976 11.093-18.688 6.827-3.755 15.189-3.499 21.76 0.768l402.091 257.664c3.968-64.555 9.344-118.443 15.915-184.021l6.784-67.2-149.376-98.688c-6.016-4.011-9.6-10.667-9.6-17.835v-42.667c0-6.443 2.944-12.587 7.979-16.64 5.077-4.096 11.691-5.632 17.963-4.224l187.392 41.685 187.392-41.685c1.536-0.341 3.072-0.512 4.608-0.512 4.821 0 9.515 1.621 13.355 4.693 5.035 4.096 7.979 10.24 7.979 16.683v42.667c0 7.168-3.584 13.867-9.6 17.792l-149.376 98.56 6.784 67.413c6.571 65.493 11.947 119.339 15.915 183.893l402.091-257.579c6.613-4.267 14.933-4.48 21.717-0.768 6.869 3.712 11.136 10.88 11.136 18.688v50.005c0 28.501-11.051 55.253-31.104 75.307z" />
<glyph unicode="&#xe90c;" glyph-name="Alarm" d="M490.667 810.667c-223.488 0-405.333-181.845-405.333-405.333s181.845-405.333 405.333-405.333 405.333 181.845 405.333 405.333-181.845 405.333-405.333 405.333zM633.771 262.23c-4.181-4.139-9.643-6.229-15.104-6.229s-10.923 2.091-15.104 6.229l-128 128c-3.968 4.011-6.229 9.429-6.229 15.104v256c0 11.776 9.557 21.333 21.333 21.333s21.333-9.557 21.333-21.333v-247.168l121.771-121.771c8.32-8.32 8.32-21.803 0-30.165zM348.971 829.995l3.285 3.285c4.779 4.779 6.997 11.477 6.059 18.133-0.981 6.613-4.992 12.459-10.837 15.659-34.517 18.944-73.515 28.928-112.811 28.928-129.408 0-234.667-105.259-234.667-234.667 0-39.381 9.984-78.379 28.928-112.811 3.243-5.888 9.045-9.899 15.701-10.837 0.981-0.128 2.005-0.213 2.987-0.213 5.632 0 11.051 2.219 15.104 6.229l3.285 3.285c44.544 133.163 149.845 238.464 282.965 283.008zM746.667 896c-39.296 0-78.293-9.984-112.811-28.928-5.931-3.243-9.899-9.045-10.88-15.701s1.28-13.355 6.059-18.091l3.285-3.285c133.163-44.544 238.464-149.888 283.008-283.008l3.285-3.285c4.053-4.011 9.472-6.229 15.104-6.229 0.981 0 2.005 0.043 2.987 0.213 6.613 0.939 12.459 4.949 15.701 10.837 18.944 34.389 28.928 73.387 28.928 112.811 0 129.408-105.301 234.667-234.667 234.667z" />
<glyph unicode="&#xe90d;" glyph-name="Alcohol-Drink" d="M469.333 40.235v228.267l330.155 330.155c0.384 0.299 0.512 0.683 0.896 1.024 2.176 1.877 3.712 3.883 5.205 5.931 0.725 1.024 1.749 1.963 2.347 3.029 1.707 3.157 2.731 6.485 2.731 10.027 0 3.925-1.365 7.424-3.2 10.581-0.427 0.768-0.896 1.408-1.408 2.133-2.261 2.987-4.992 5.504-8.491 6.955 0 0 0 0.043-0.043 0.043-0.085 0.043-0.128 0-0.213 0-2.475 1.024-5.163 1.621-7.979 1.621-0.768 0-1.28-0.555-2.005-0.597-2.048-0.213-3.797-0.939-5.717-1.707-2.005-0.811-3.84-1.579-5.461-2.901-0.555-0.469-1.365-0.469-1.877-0.981l-7.68-7.68c-1.621-0.725-3.627-1.493-5.888-2.261s-4.48-1.536-7.339-2.304c-3.285-0.896-7.296-1.792-11.349-2.688-3.499-0.768-6.869-1.536-10.923-2.304-4.821-0.896-10.411-1.792-16-2.688-4.565-0.725-8.917-1.451-13.995-2.176-6.357-0.896-13.568-1.707-20.693-2.56-5.547-0.64-10.795-1.323-16.811-1.963-7.851-0.811-16.64-1.536-25.259-2.261-6.357-0.555-12.416-1.152-19.2-1.621-9.685-0.725-20.309-1.28-30.763-1.877-6.784-0.384-13.141-0.853-20.224-1.195-12.075-0.555-25.131-0.981-38.101-1.365-6.485-0.213-12.501-0.512-19.2-0.64-19.968-0.64-40.917-0.896-62.848-0.896-19.755 0-38.613 0.256-56.875 0.64-5.973 0.128-11.563 0.341-17.365 0.469-4.736 0.128-9.216 0.341-13.824 0.469l-27.392 38.485c35.072 1.579 73.387 2.603 115.456 2.603h85.333c11.776 0 21.333 9.557 21.333 21.333s-9.557 21.333-21.333 21.333h-85.333c-47.616 0-97.749-0.981-145.152-3.541l-69.675 97.792 183.979 122.667c7.851 5.205 11.307 14.933 8.576 23.936s-10.965 15.147-20.395 15.147h-298.667c-9.173 0-17.323-5.888-20.267-14.592l-85.333-256c-2.859-8.661 0.043-18.176 7.296-23.723 3.84-2.901 8.405-4.352 12.971-4.352 4.139 0 8.235 1.195 11.819 3.584l164.48 109.653 55.253-77.568c-80.683-6.955-145.323-20.224-162.56-43.989-0.597-0.768-1.237-1.408-1.749-2.261-1.963-3.413-3.243-6.955-3.243-10.752 0-3.541 1.024-6.869 2.731-10.069 0.555-1.024 1.579-2.005 2.347-3.029 1.493-2.005 3.029-4.053 5.205-5.931 0.384-0.299 0.512-0.683 0.896-0.981l330.155-330.155v-228.267c-170.155-20.821-170.667-46.208-170.667-61.568 0-60.928 159.957-64 192-64s192 3.072 192 64c0 15.403-0.512 40.747-170.667 61.568zM305.835 601.387c-5.12 0.299-10.411 0.555-15.317 0.896-5.504 0.384-11.093 0.725-16.341 1.109-9.984 0.768-19.371 1.579-28.459 2.432-3.84 0.384-8.021 0.725-11.691 1.067-12.288 1.237-23.765 2.56-34.176 3.968-2.091 0.299-3.712 0.597-5.717 0.853-8.149 1.152-15.829 2.347-22.699 3.541-2.901 0.512-5.419 1.024-8.107 1.536-3.328 0.64-6.272 1.323-9.216 1.963 27.093 5.931 71.083 11.691 128.128 15.701l23.595-33.067zM789.333 810.667c-96.981 0-179.2-77.141-192-170.667 75.349 4.907 130.005 15.957 149.333 21.333 12.075 12.117 25.6 21.333 42.667 21.333 8.491 0 16.811-1.664 24.619-4.949 23.893-9.856 39.381-33.067 39.381-59.051 0-20.053-9.557-38.912-26.837-53.035l-88.704-88.789-4.395-20.864c-1.152-5.547-0.085-11.307 3.029-16.043 3.072-4.736 7.936-8.021 13.44-9.173 12.971-2.731 26.197-4.096 39.467-4.096 105.856 0 192 86.144 192 192s-86.144 192-192 192z" />
<glyph unicode="&#xe90e;" glyph-name="Anchor" d="M998.101 205.227c-5.547 7.083-14.933 9.771-23.509 7.040l-128-42.667c-11.179-3.755-17.195-15.829-13.483-27.008s15.701-17.28 26.965-13.483l66.133 22.059c-94.549-117.035-236.544-186.709-392.875-192.64v426.368h149.333c11.776 0 21.333 9.557 21.333 21.333s-9.557 21.333-21.333 21.333h-149.333v299.947c48.64 9.899 85.333 52.992 85.333 104.491 0 58.837-47.872 106.667-106.667 106.667s-106.667-47.829-106.667-106.667c0-51.541 36.693-94.592 85.333-104.491v-299.947h-149.333c-11.776 0-21.333-9.557-21.333-21.333s9.557-21.333 21.333-21.333h149.333v-426.325c-150.016 6.229-293.461 76.885-390.528 191.829l63.787-21.291c11.221-3.797 23.253 2.347 26.965 13.483s-2.304 23.253-13.483 27.008l-128 42.667c-8.619 2.688-18.048-0.043-23.637-7.211-5.547-7.168-5.973-17.024-1.024-24.661 106.539-163.883 293.205-265.728 487.253-265.728 201.771 0 384 99.456 487.467 266.069 4.736 7.637 4.181 17.451-1.365 24.491zM448 832c0 35.285 28.715 64 64 64s64-28.715 64-64-28.715-64-64-64-64 28.715-64 64z" />
<glyph unicode="&#xe90f;" glyph-name="Android" d="M704 554.624h-426.667c-11.776 0-21.333-9.557-21.333-21.333v-341.333c0-51.541 36.693-94.592 85.333-104.533v-108.8c0-35.285 28.715-64 64-64s64 28.715 64 64v106.667h42.667v-106.667c0-35.285 28.715-64 64-64s64 28.715 64 64v108.8c48.64 9.899 85.333 52.992 85.333 104.533v341.333c0 11.819-9.557 21.333-21.333 21.333zM602.325 825.003l35.968 83.925c4.651 10.837-0.384 23.339-11.221 27.989-10.709 4.693-23.381-0.341-27.989-11.221l-35.968-83.968c-22.827 7.424-47.147 11.563-72.405 11.563s-49.579-4.139-72.405-11.563l-36.053 83.968c-4.608 10.88-17.28 15.957-27.989 11.221-10.837-4.651-15.829-17.195-11.179-27.989l35.968-83.925c-73.259-39.765-123.051-117.376-123.051-206.379 0-11.776 9.557-21.333 21.333-21.333h426.667c11.776 0 21.333 9.557 21.333 21.333 0 89.003-49.792 166.613-123.008 206.379zM405.333 682.624c-11.776 0-21.333 9.557-21.333 21.333s9.557 21.333 21.333 21.333 21.333-9.557 21.333-21.333c0-11.776-9.557-21.333-21.333-21.333zM576 682.624c-11.776 0-21.333 9.557-21.333 21.333s9.557 21.333 21.333 21.333 21.333-9.557 21.333-21.333c0-11.776-9.557-21.333-21.333-21.333zM832 554.624c-35.285 0-64-28.715-64-64v-213.333c0-35.285 28.715-64 64-64s64 28.715 64 64v213.333c0 35.285-28.715 64-64 64zM149.333 554.624c-35.285 0-64-28.715-64-64v-213.333c0-35.285 28.715-64 64-64s64 28.715 64 64v213.333c0 35.285-28.715 64-64 64z" />
<glyph unicode="&#xe910;" glyph-name="Announcement" d="M832 938.667h-682.667c-82.347 0-149.333-66.987-149.333-149.333v-469.333c0-82.347 66.987-149.333 149.333-149.333h460.501l207.104-207.104c4.053-4.053 9.515-6.229 15.061-6.229 2.731 0 5.547 0.512 8.149 1.621 7.979 3.285 13.184 11.093 13.184 19.712v193.536c72.277 10.368 128 72.704 128 147.797v469.333c0 82.347-66.987 149.333-149.333 149.333zM490.667 298.667c-35.285 0-64 28.715-64 64s28.715 64 64 64 64-28.715 64-64-28.715-64-64-64zM557.44 531.2c-2.432-34.517-31.829-61.867-66.773-61.867-35.328 0-64.683 27.349-67.115 62.251l-18.005 210.219c-1.28 17.92 4.864 35.499 16.896 48.427 12.117 13.013 29.184 20.437 46.891 20.437h42.667c17.707 0 34.773-7.424 46.891-20.437 12.032-12.971 18.219-30.507 16.939-48.171l-18.389-210.859z" />
<glyph unicode="&#xe911;" glyph-name="Anonymus-2" d="M1024 426.667c0 282.325-229.675 512-512 512s-512-229.675-512-512c0-268.245 207.445-488.533 470.272-509.867 13.611-1.28 27.435-2.133 41.728-2.133 14.507 0 28.544 0.853 42.325 2.133 118.528 9.771 225.493 60.075 307.456 137.003 0.512 0.256 0.768 0.811 1.237 1.109 98.859 93.397 160.981 225.323 160.981 371.755zM42.667 426.667c0 258.773 210.56 469.333 469.333 469.333s469.333-210.56 469.333-469.333c0-128-51.627-244.053-134.997-328.832-2.901 1.109-5.675 2.432-8.619 3.456l-86.741 30.165c-11.691 4.053-22.315 10.283-31.915 18.005-54.229-66.987-127.573-106.795-207.061-106.795-79.531 0-152.875 39.851-207.104 106.88-9.6-7.765-20.267-13.995-32-18.091l-86.741-30.165c-2.901-1.024-5.675-2.304-8.533-3.413-83.328 84.779-134.955 200.832-134.955 328.789zM448 426.667h-42.667c-11.776 0-21.333-9.557-21.333-21.333s9.557-21.333 21.333-21.333h42.667c11.776 0 21.333 9.557 21.333 21.333s-9.557 21.333-21.333 21.333zM618.667 426.667h-42.667c-11.776 0-21.333-9.557-21.333-21.333s9.557-21.333 21.333-21.333h42.667c11.776 0 21.333 9.557 21.333 21.333s-9.557 21.333-21.333 21.333zM326.229 527.104c-8.32-8.32-8.32-21.845 0-30.165s21.845-8.32 30.165 0c13.824 13.909 66.944-16.171 98.944-43.733 4.096-3.499 9.045-5.205 13.995-5.205 5.973 0 11.904 2.517 16.128 7.424 7.723 8.917 6.741 22.357-2.176 30.037-17.792 15.36-108.971 89.643-157.056 41.643zM697.771 527.104c-47.957 47.957-139.264-26.24-157.056-41.643-8.917-7.68-9.856-21.12-2.176-30.037 4.224-4.907 10.155-7.424 16.128-7.424 4.949 0 9.899 1.707 13.952 5.163 31.957 27.563 85.035 57.685 98.944 43.733 8.32-8.32 21.845-8.32 30.165 0s8.363 21.845 0.043 30.208zM533.035 60.502l4.608 27.563c98.645 13.184 183.211 100.437 215.979 226.987 0.043 0.128 0.085 0.256 0.128 0.384 0.341 1.237 0.811 2.347 1.152 3.584 0.171 0.597 0 1.195 0.085 1.792 0.128 0.853 0.512 1.536 0.555 2.432l12.459 294.528c0.341 8.576-4.48 16.597-12.245 20.224-10.027 4.693-20.821 8.832-31.915 12.629-0.128 0.213-0.043 0.512-0.213 0.768-46.080 73.003-125.227 116.608-211.627 116.608-86.357 0-165.461-43.563-211.584-116.608-0.171-0.256-0.171-0.555-0.299-0.811-11.093-3.755-21.845-7.893-31.872-12.587-7.765-3.669-12.587-11.648-12.245-20.224l12.544-294.485c0.043-0.811 0.427-1.451 0.555-2.219 0.085-0.683-0.085-1.323 0.085-2.005 31.957-128.811 117.461-217.685 217.216-230.997l4.608-27.563c1.664-10.283 10.581-17.835 20.992-17.835s19.328 7.552 21.035 17.835zM607.232 338.859c-10.368 5.419-23.339 1.493-28.8-8.96-5.504-10.453-1.451-23.339 8.96-28.8 8.789-4.608 23.211-9.344 41.003-13.355l-14.848-22.272c-3.925-5.931-10.539-9.472-17.707-9.472h-7.851c-9.813 0-18.347 6.656-21.76 19.243l-13.269 31.659c-3.285 7.936-11.093 13.099-19.669 13.099h-42.667c-8.576 0-16.384-5.163-19.669-13.099l-14.293-34.731c-2.347-9.515-10.837-16.171-20.651-16.171h-7.851c-7.168 0-13.781 3.541-17.749 9.515l-14.848 22.272c17.792 4.011 32.213 8.747 41.003 13.355 10.411 5.461 14.464 18.347 8.96 28.8-5.461 10.453-18.432 14.379-28.8 8.96-13.696-7.168-55.723-16.768-103.381-18.517-0.683 2.475-1.621 4.736-2.261 7.296l-11.776 277.248c14.123 5.632 29.568 10.325 45.397 14.293 0.597 0.085 1.195-0.085 1.792 0.085l18.731 4.693c72.107 15.019 145.835 16 146.56 16 1.365 0 129.237-1.621 212.949-35.072l-11.819-277.291c-0.64-2.517-1.579-4.779-2.261-7.296-47.659 1.749-89.728 11.349-103.424 18.517zM327.595 278.358c7.424 0.469 14.635 1.109 21.717 1.877l25.6-38.4c11.904-17.835 31.787-28.501 53.248-28.501h7.851c29.397 0 54.955 19.968 61.099 45.397l7.808 18.603h14.379l6.613-15.488c7.125-28.544 32.683-48.512 62.080-48.512h7.851c21.461 0 41.344 10.667 53.248 28.501l25.6 38.4c7.083-0.768 14.293-1.408 21.76-1.877-32.171-78.293-87.765-132.693-151.509-146.688l9.472 56.832c1.963 11.605-5.931 22.613-17.536 24.533-11.392 2.133-22.571-5.888-24.533-17.536l-0.341-1.749-0.299 1.749c-1.963 11.648-13.269 19.669-24.533 17.536-11.605-1.92-19.499-12.928-17.536-24.533l9.472-56.832c-63.744 13.995-119.339 68.395-151.509 146.688z" />
<glyph unicode="&#xe912;" glyph-name="Anonymus" d="M1024 426.667c0 282.325-229.675 512-512 512s-512-229.675-512-512c0-270.507 210.987-492.075 476.971-510.208 11.563-1.067 23.211-1.792 35.029-1.792 12.032 0 23.936 0.683 35.712 1.792 121.173 8.405 230.656 59.008 314.112 137.387 0.768 0.427 1.152 1.195 1.877 1.707 98.475 93.397 160.299 225.024 160.299 371.115zM42.667 426.667c0 258.773 210.56 469.333 469.333 469.333s469.333-210.56 469.333-469.333c0-128-51.627-244.096-134.997-328.832-2.901 1.109-5.717 2.432-8.661 3.456l-86.741 30.123c-10.709 3.755-20.437 9.429-29.355 16.256-37.931-45.227-85.461-78.165-138.539-93.867-2.816-0.896-7.339-2.261-11.904-3.413-6.869-1.707-12.971-2.987-19.2-4.053-14.080-2.475-27.307-3.669-39.979-3.669-12.587 0-25.856 1.195-40.533 3.755-5.803 0.939-11.776 2.261-17.792 3.712-5.547 1.408-9.899 2.688-14.251 4.139-52.267 15.445-99.413 48.213-137.173 93.355-8.917-6.784-18.603-12.459-29.269-16.171l-86.741-30.165c-2.901-1.024-5.675-2.304-8.533-3.413-83.371 84.779-134.997 200.832-134.997 328.789zM448 448c11.776 0 21.333 9.557 21.333 21.333 0 38.485 29.824 42.667 42.667 42.667s42.667-4.181 42.667-42.667c0-35.797-7.893-52.139-32.469-67.115-47.445-29.013-55.424-67.371-52.608-85.461 1.621-10.453 10.581-17.664 20.907-17.664 0.896 0 1.749 0.043 2.645 0.128 11.392 1.365 19.627 11.904 18.688 23.339-0.043 0.896-1.408 22.443 32.64 43.264 37.547 22.912 52.864 52.907 52.864 103.509 0 50.261-35.072 85.333-85.333 85.333s-85.333-35.072-85.333-85.333c0-11.776 9.557-21.333 21.333-21.333zM512 234.667c0-11.782-9.551-21.333-21.333-21.333s-21.333 9.551-21.333 21.333c0 11.782 9.551 21.333 21.333 21.333s21.333-9.551 21.333-21.333zM277.291 256c2.347 0 4.992 0.213 7.893 0.811 34.048-80.939 95.403-140.715 167.211-161.92 3.627-1.152 7.296-2.261 11.264-3.285 4.992-1.195 9.984-2.304 14.976-3.115 10.923-1.92 21.973-3.157 33.323-3.157 11.307 0 22.357 1.237 33.152 3.115 5.12 0.853 10.112 1.92 15.36 3.2 3.712 0.939 7.381 2.048 10.496 3.029 72.277 21.376 133.675 81.109 167.765 162.091 2.859-0.555 5.547-0.768 7.893-0.768 36.48 0 64 45.867 64 106.667 0 49.408-18.176 89.003-44.587 102.059-13.824 156.587-114.389 260.608-254.080 260.608-139.733 0-240.299-104.021-254.123-260.608-26.411-13.099-44.544-52.608-44.544-102.059 0-60.8 27.52-106.667 64-106.667zM278.059 426.667c11.392 0 20.736 8.917 21.333 20.267 7.168 143.189 90.624 235.733 212.565 235.733 121.899 0 205.355-92.544 212.523-235.733 0.597-11.349 9.941-20.267 21.333-20.267h0.811c5.333 0 21.333-22.699 21.333-64s-16.043-64-21.12-64c0 0-1.536 0.427-4.309 3.2-5.163 5.291-12.672 7.509-19.968 5.845-7.211-1.621-13.056-6.912-15.445-13.909-27.051-79.616-82.475-138.752-148.821-158.336-2.773-0.896-5.547-1.749-8.149-2.389-3.968-0.939-7.936-1.877-12.117-2.56-17.152-2.901-34.944-2.901-52.395 0-4.053 0.683-8.021 1.579-11.691 2.475-2.816 0.725-5.632 1.536-8.917 2.645-65.792 19.413-121.216 78.549-148.309 158.165-2.389 6.997-8.235 12.288-15.445 13.909-1.579 0.384-3.157 0.555-4.736 0.555-5.675 0-11.179-2.261-15.189-6.357-2.688-2.688-4.181-3.243-4.096-3.243-5.333 0.043-21.333 22.741-21.333 64 0.043 41.301 16.043 64 22.144 64z" />
<glyph unicode="&#xe913;" glyph-name="Answer-2" d="M512 149.334c0 92.971 46.336 179.328 123.904 230.955 2.731 1.792 5.035 4.267 6.656 7.125 12.459 21.675 18.731 42.069 18.731 60.544 0 15.104 4.48 21.333 5.163 21.973 6.656 1.664 12.075 6.4 14.635 12.757 2.432 5.888 22.912 58.197 22.912 93.312 0 1.749-0.213 3.499-0.64 5.163-2.304 9.344-8.875 23.040-20.693 31.061v113.109c0 68.736-20.992 96.939-43.136 113.28-4.139 33.109-39.637 100.053-170.197 100.053-132.181 0-213.333-124.245-213.333-213.333v-113.109c-11.819-8.021-18.389-21.717-20.693-31.061-0.427-1.664-0.64-3.413-0.64-5.163 0-35.115 20.48-87.424 22.869-93.269 2.56-6.357 6.272-10.581 12.971-12.245 2.347-1.152 6.827-7.381 6.827-22.485 0-40.533 30.421-85.589 63.061-115.541-4.437-27.947-25.301-101.632-69.803-120.235l-189.355-63.104c-52.011-17.323-69.461-60.928-80.64-105.429-0.384-1.707-0.597-3.456-0.597-5.205v-102.485c0-11.776 9.557-21.333 21.333-21.333h559.147c8.661 0 16.469 5.248 19.755 13.269s1.365 17.237-4.821 23.296c-53.803 52.693-83.413 123.008-83.413 198.101zM789.333 384c-129.365 0-234.667-105.259-234.667-234.667s105.301-234.667 234.667-234.667 234.667 105.259 234.667 234.667-105.301 234.667-234.667 234.667zM767.915 277.334c0 11.776 9.557 21.333 21.333 21.333s21.333-9.557 21.333-21.333v-170.667c0-11.776-9.557-21.333-21.333-21.333s-21.333 9.557-21.333 21.333v170.667zM804.267 6.4c-3.84-4.267-9.387-6.4-14.933-6.4-6.016 0-11.563 2.133-15.36 6.4-3.84 3.413-5.973 8.96-5.973 14.933s2.133 11.52 6.357 15.36c6.827 7.253 22.229 7.68 29.867-0.427 3.84-3.84 6.4-9.387 6.4-14.933 0.043-5.547-2.56-11.093-6.357-14.933z" />
<glyph unicode="&#xe914;" glyph-name="Answer-3" d="M640.171 590.080c-3.029-24.277-15.189-46.293-34.219-61.909-3.371-2.773-5.803-6.485-6.997-10.709-6.101-21.589-14.891-42.411-26.155-61.867-3.371-5.803-3.797-12.843-1.195-19.029 2.645-6.187 8.021-10.752 14.507-12.373l53.803-13.44c6.016-1.493 11.605-3.669 17.237-5.803l5.333-2.005c2.432-0.896 4.864-1.28 7.381-1.28 2.901 0 5.845 0.597 8.576 1.792 19.669 8.619 41.003 15.019 63.36 18.816 4.139 0.768 7.936 2.645 10.965 5.461 34.603 32.427 58.667 77.952 66.347 124.416 18.347 6.528 32.256 22.997 34.731 43.307l7.893 63.104c1.835 14.848-2.773 29.909-12.672 41.173-4.821 5.547-10.752 9.984-17.28 13.056l2.603 53.376 10.368 10.411c19.157 20.352 35.072 55.083 2.304 105.131-24.747 37.803-66.475 56.96-124.117 56.96-21.163 0-49.323-1.28-79.573-11.563-6.059-2.048-10.88-6.699-13.141-12.715-2.261-5.973-1.707-12.672 1.493-18.219 29.184-50.347 27.051-102.101-5.888-141.952-6.571-8.021-6.485-19.499 0.213-27.392 17.237-20.395 25.301-47.189 22.016-73.643l-7.893-63.104zM598.443 365.952c-2.048 7.381-7.936 13.141-15.317 15.019l-71.168 17.835-8.661 34.816c31.104 31.829 52.608 74.539 59.776 118.485 18.389 6.571 32.256 22.997 34.731 43.307l7.893 63.104c1.877 14.891-2.731 29.952-12.629 41.216-4.821 5.547-10.752 9.984-17.28 13.056l2.603 53.376 10.368 10.411c19.157 20.352 35.072 55.083 2.304 105.131-24.747 37.803-66.475 56.96-124.117 56.96-22.229 0-73.216 0-121.301-31.659-138.496-3.456-156.416-71.979-156.416-131.584 0-13.525 2.944-41.984 5.205-61.525-7.339-3.115-13.995-7.765-19.328-13.909-10.027-11.349-14.72-26.496-12.8-41.515l7.893-63.104c2.688-21.675 18.347-38.912 38.528-44.459 7.125-42.112 27.52-83.285 56.747-114.475l-9.429-37.717-117.589-29.355c-81.536-20.309-138.453-93.227-138.453-177.28 0-11.776 9.557-21.333 21.333-21.333l472.747-0.043c10.624 0 19.627 7.808 21.12 18.304 8.533 59.733 35.456 113.749 77.781 156.16 5.461 5.461 7.552 13.355 5.461 20.779zM789.333 384c-129.365 0-234.667-105.301-234.667-234.667s105.301-234.667 234.667-234.667 234.667 105.301 234.667 234.667-105.301 234.667-234.667 234.667zM767.915 277.334c0 11.776 9.557 21.333 21.333 21.333s21.333-9.557 21.333-21.333v-170.667c0-11.776-9.557-21.333-21.333-21.333s-21.333 9.557-21.333 21.333v170.667zM804.267 6.4c-3.84-4.267-9.387-6.4-14.933-6.4s-11.093 2.133-14.976 6.016c-4.224 4.224-6.357 9.771-6.357 15.317s2.133 11.093 5.973 14.976c8.533 8.064 22.229 8.064 30.293 0.427 3.797-4.309 6.4-9.856 6.4-15.403s-2.603-11.093-6.4-14.933z" />
<glyph unicode="&#xe915;" glyph-name="Answer" d="M512 149.334c0 114.091 71.808 218.112 178.645 258.901 7.125 2.731 12.245 9.045 13.44 16.597 0.213 1.408 0.427 2.773 0.64 4.139 24.363 6.741 43.221 27.605 46.464 53.76l10.667 85.333c2.261 18.005-3.285 36.224-15.232 49.877-6.997 8.021-15.829 14.080-25.6 17.792l3.925 80.341 15.957 15.957c24.021 25.6 43.947 69.376 2.304 132.992-32 48.853-86.357 73.643-161.621 73.643-29.653 0-98.048 0-161.749-42.752-181.803-3.797-206.507-88.235-206.507-170.581 0-19.157 4.651-62.293 7.723-88.32-10.965-3.456-20.949-9.856-28.672-18.645-12.117-13.739-17.792-32.085-15.531-50.304l10.667-85.333c3.456-27.819 24.619-49.707 51.285-54.912 8.875-58.667 37.248-116.224 78.464-158.805l-14.848-59.435-163.413-40.875c-93.568-23.339-139.008-99.456-139.008-232.704 0-5.675 2.261-11.093 6.229-15.104s9.429-6.229 15.104-6.229l559.104 0.043c8.661 0 16.469 5.248 19.755 13.269s1.365 17.237-4.821 23.296c-53.803 52.693-83.371 123.008-83.371 198.059zM789.333 384c-129.365 0-234.667-105.259-234.667-234.667s105.301-234.667 234.667-234.667 234.667 105.259 234.667 234.667-105.301 234.667-234.667 234.667zM767.915 277.334c0 11.776 9.557 21.333 21.333 21.333s21.333-9.557 21.333-21.333v-170.667c0-11.776-9.557-21.333-21.333-21.333s-21.333 9.557-21.333 21.333v170.667zM804.267 6.4c-3.84-4.267-9.387-6.4-14.933-6.4-6.016 0-11.563 2.133-15.36 6.4-3.84 3.413-5.973 8.96-5.973 14.933s2.133 11.52 6.357 15.36c6.827 7.253 22.229 7.68 29.867-0.427 3.84-3.84 6.4-9.387 6.4-14.933 0.043-5.547-2.56-11.093-6.357-14.933z" />
<glyph unicode="&#xe916;" glyph-name="Apron" d="M972.16 678.87c-9.728 6.699-22.997 4.309-29.696-5.376-20.053-28.971-42.752-80.64-46.421-138.795-2.176-34.731-32.597-53.077-108.075-65.237-137.216 0.981-147.968 146.987-147.968 191.872v128c0 82.347-66.987 149.333-149.333 149.333s-149.333-66.987-149.333-149.333v-128c0-43.861-10.581-183.936-139.008-191.317-15.019 20.224-50.731 64.725-86.101 82.389-43.179 21.589-76.416-13.611-94.251-32.427-3.669-3.883-8.704-9.173-10.197-10.197-10.539-5.291-14.805-18.091-9.557-28.629 5.291-10.539 18.133-14.763 28.629-9.557 7.765 3.883 14.421 10.923 22.101 19.072 19.797 20.992 31.488 29.995 44.16 23.595 26.283-13.141 59.051-53.333 73.557-73.173v-419.755c0-58.795 47.829-106.667 106.667-106.667h426.667c58.795 0 106.667 47.872 106.667 106.667v408.576c48.853 8.704 123.392 28.928 127.957 102.059 3.115 49.493 22.912 94.080 38.912 117.205 6.699 9.685 4.309 22.997-5.376 29.696zM490.667 896c58.795 0 106.667-47.872 106.667-106.667v-106.667h-213.333v106.667c0 58.795 47.829 106.667 106.667 106.667zM597.333 320c0-11.776-9.557-21.333-21.333-21.333h-170.667c-11.776 0-21.333 9.557-21.333 21.333v85.333c0 11.776 9.557 21.333 21.333 21.333s21.333-9.557 21.333-21.333v-64h128v64c0 11.776 9.557 21.333 21.333 21.333s21.333-9.557 21.333-21.333v-85.333z" />
<glyph unicode="&#xe917;" glyph-name="Archive-File" d="M1022.507 365.739c-1.536 10.496-10.539 18.261-21.12 18.261h-126.72c-58.837 0-106.667-47.829-106.667-106.667 0-28.416-11.136-55.211-31.275-75.392s-46.976-31.275-75.392-31.275h-298.667c-58.795 0-106.667 47.829-106.667 106.667 0 28.8-11.221 55.595-31.189 75.051-19.883 20.395-46.677 31.616-75.477 31.616h-125.867c-9.771 0-18.304-6.656-20.693-16.171-2.475-9.771-2.773-19.285-2.773-26.496v-277.333c0-82.347 66.987-149.333 149.333-149.333h725.333c82.347 0 149.333 66.987 149.333 149.333v281.173c0 7.083-0.512 13.568-1.493 20.565zM85.333 512l-42.667-85.333h42.667zM938.667 512v-85.333h42.667zM255.36 382.123c27.648-26.88 43.307-64.384 43.307-104.789 0-35.285 28.715-64 64-64h298.667c17.024 0 33.067 6.656 45.227 18.773s18.773 28.203 18.773 45.227c0 82.347 66.987 149.333 149.333 149.333h21.333v234.667c0 0.981-0.427 1.792-0.555 2.731-0.128 0.981-0.299 1.792-0.555 2.731-0.981 3.669-2.56 7.040-5.163 9.643l-255.957 255.957c-2.603 2.603-6.016 4.181-9.643 5.163-0.939 0.256-1.792 0.427-2.731 0.555s-1.749 0.555-2.731 0.555h-469.333c-11.776 0-21.333-9.557-21.333-21.333v-490.667h21.333c40.448 0 78.123-15.829 106.027-44.544zM640 865.835l183.168-183.168h-183.168v183.168z" />
<glyph unicode="&#xe918;" glyph-name="Archive" d="M998.912 641.024l-153.813 230.741c-27.776 41.643-74.197 66.517-124.245 66.517h-394.24c-64.768 0-124.672-32.299-160.341-86.4l-137.728-208.981c-18.688-25.685-28.544-56.064-28.544-87.851v-490.667c0-82.347 66.987-149.333 149.333-149.333h725.333c82.347 0 149.333 66.987 149.333 149.333v493.824c0 29.525-8.661 58.155-25.088 82.816zM63.915 619.008l137.984 209.408c27.733 42.069 74.325 67.2 124.715 67.2h394.24c35.755 0 68.907-17.749 88.747-47.488l153.813-230.741c4.224-6.357 6.869-13.44 9.643-20.437h-98.389c-58.837 0-106.667-47.872-106.667-106.667v-212.565c0-58.837-47.829-106.667-106.667-106.667h-298.667c-58.795 0-106.667 47.829-106.667 106.667v213.333c0 58.411-47.488 105.899-105.899 105.899h-98.517c3.157 7.381 6.869 14.592 11.733 21.205 0.213 0.299 0.427 0.555 0.597 0.853zM298.667 555.051h426.667c11.776 0 21.333 9.557 21.333 21.333s-9.557 21.333-21.333 21.333h-426.667c-11.776 0-21.333-9.557-21.333-21.333s9.557-21.333 21.333-21.333zM704 512.384h-384c-11.776 0-21.333-9.557-21.333-21.333s9.557-21.333 21.333-21.333h384c11.776 0 21.333 9.557 21.333 21.333s-9.557 21.333-21.333 21.333zM704 427.051h-384c-11.776 0-21.333-9.557-21.333-21.333s9.557-21.333 21.333-21.333h384c11.776 0 21.333 9.557 21.333 21.333s-9.557 21.333-21.333 21.333zM704 341.718h-384c-11.776 0-21.333-9.557-21.333-21.333s9.557-21.333 21.333-21.333h384c11.776 0 21.333 9.557 21.333 21.333s-9.557 21.333-21.333 21.333zM682.667 256.384h-341.333c-11.776 0-21.333-9.557-21.333-21.333s9.557-21.333 21.333-21.333h341.333c11.776 0 21.333 9.557 21.333 21.333s-9.557 21.333-21.333 21.333z" />
<glyph unicode="&#xe919;" glyph-name="Armchair-1" d="M932.736 865.366c-94.379 13.952-243.968 30.635-420.736 30.635-174.976 0-325.291-16.725-420.565-30.763-52.992-7.765-91.435-52.181-91.435-105.557v-68.693c0-53.376 38.443-97.792 91.392-105.6 95.147-13.995 245.333-30.72 420.608-30.72 175.744 0 325.76 16.725 420.651 30.72 52.949 7.808 91.349 52.224 91.349 105.557v68.864c0 53.291-38.357 97.707-91.264 105.557zM938.923 543.147c-42.923-6.315-97.365-13.099-159.787-18.773-5.931-53.461-11.136-119.595-11.136-204.373 0-128.939 11.136-217.515 21.547-290.347 6.016-41.899 40.235-72.32 81.451-72.32h49.195c41.216 0 75.477 30.421 81.621 73.557 8.832 61.995 22.187 155.776 22.187 289.109 0 110.549-8.747 192.171-16.725 251.947-19.456-14.635-42.539-24.96-68.352-28.8zM85.163 543.19c-25.813 3.797-48.981 14.123-68.437 28.8-7.979-59.947-16.725-141.696-16.725-251.989 0-128.427 11.136-217.173 21.547-290.304 5.888-41.259 40.875-72.363 81.451-72.363h49.152c41.216 0 75.477 30.421 81.621 73.472 8.875 61.781 22.229 155.179 22.229 289.195 0 84.779-5.205 150.955-11.136 204.373-62.336 5.675-116.779 12.501-159.701 18.816zM725.333 320c0 69.888 3.541 134.016 10.709 200.917-67.584-5.205-142.592-8.917-224.043-8.917-81.365 0-156.416 3.712-224.085 8.96 7.168-66.859 10.752-130.987 10.752-200.96 0-136.875-13.611-232.021-22.613-294.997-1.749-12.331-5.547-23.765-10.283-34.56 83.029-21.589 165.632-33.109 246.229-33.109 80.469 0 162.731 11.349 245.291 32.725-4.565 10.539-8.277 21.589-9.984 33.536-10.624 74.368-21.973 164.736-21.973 296.405z" />
<glyph unicode="&#xe91a;" glyph-name="Armchair-2" d="M0 557.142v-493.141c0-58.795 47.872-106.667 106.667-106.667h42.667c58.795 0 106.667 47.872 106.667 106.667v448h-149.333c-41.813 0-79.531 17.365-106.667 45.141zM768 512v-448c0-58.795 47.872-106.667 106.667-106.667h42.667c58.795 0 106.667 47.872 106.667 106.667v493.141c-27.136-27.776-64.853-45.141-106.667-45.141h-149.333zM917.333 896h-810.667c-58.795 0-106.667-47.872-106.667-106.667v-128c0-58.795 47.872-106.667 106.667-106.667h810.667c58.795 0 106.667 47.872 106.667 106.667v128c0 58.795-47.872 106.667-106.667 106.667zM725.333 512h-426.667v-448c0-22.997-5.675-44.544-14.976-64h456.619c-9.301 19.456-14.976 41.003-14.976 64v448z" />
<glyph unicode="&#xe91b;" glyph-name="Armchair-3" d="M512 853.334c-282.325 0-512-229.675-512-512 0-177.28 20.651-341.333 170.667-341.333 79.189 0 85.333 141.483 85.333 341.333 0 141.184 114.816 256 256 256s256-114.816 256-256c0-199.851 6.144-341.333 85.333-341.333 150.016 0 170.667 164.053 170.667 341.333 0 282.325-229.675 512-512 512zM512 554.667c-117.632 0-213.333-95.701-213.333-213.333 0-80-0.171-157.952-8.661-222.677 52.565-48.085 129.28-75.989 221.995-75.989s169.429 27.904 221.995 75.989c-8.491 64.725-8.661 142.677-8.661 222.677 0 117.632-95.701 213.333-213.333 213.333z" />
<glyph unicode="&#xe91c;" glyph-name="Armchair-4" d="M960 896h-896c-35.285 0-64-28.715-64-64v-256c0-11.776 9.557-21.333 21.333-21.333h981.333c11.776 0 21.333 9.557 21.333 21.333v256c0 35.285-28.715 64-64 64zM256 512h-234.667c-7.509 0-14.635 1.536-21.333 3.925v-451.925c0-35.285 28.715-64 64-64h128c35.285 0 64 28.715 64 64v448zM768 512v-448c0-35.285 28.715-64 64-64h128c35.285 0 64 28.715 64 64v451.925c-6.699-2.389-13.824-3.925-21.333-3.925h-234.667zM725.333 64v448h-426.667v-448c0-41.387-23.936-76.928-58.453-94.592 10.496-7.552 23.253-12.075 37.12-12.075h469.333c13.867 0 26.624 4.523 37.12 12.075-34.517 17.664-58.453 53.205-58.453 94.592z" />
<glyph unicode="&#xe91d;" glyph-name="Artifical-Intelligence-1" d="M938.667 320c0 30.251-62.336 141.824-93.44 195.627 2.901 15.36 8.107 50.475 8.107 103.040 0 91.093-120.576 320-405.333 320-279.595 0-405.333-212.096-405.333-362.667 0-106.496 62.933-215.595 113.451-303.275 29.44-51.029 57.216-99.243 57.216-123.392 0-54.315-88.32-161.963-122.325-198.869-5.76-6.229-7.296-15.232-3.883-23.040 3.413-7.723 11.093-12.757 19.541-12.757h469.333c11.776 0 20.736 6.229 20.736 18.005 7.552 15.232 83.285 56.149 153.387 67.584 52.523 8.619 124.544 20.395 124.544 85.077 0 28.117-9.771 42.624-16.171 52.224-4.352 6.443-5.163 8.021-7.851 11.947 11.477-1.237 22.357 6.784 23.851 18.517 0.597 4.523-0.341 8.917-2.347 12.629l17.579 17.579c5.717 5.717 7.723 14.165 5.163 21.845l-14.251 42.752c24.533 8.533 58.027 25.856 58.027 57.173zM719.104 676.438c8.32-8.32 8.32-21.845 0-30.165l-42.667-42.667c-4.011-4.011-9.429-6.272-15.104-6.272h-128c-11.776 0-21.333 9.557-21.333 21.333s9.557 21.333 21.333 21.333h119.168l36.437 36.437c8.32 8.32 21.803 8.32 30.165 0zM405.333 512c-5.675 0-11.093 2.261-15.104 6.229l-42.667 42.667c-8.32 8.32-8.32 21.845 0 30.165s21.845 8.32 30.165 0l36.437-36.395h289.835c11.776 0 21.333-9.557 21.333-21.333s-9.557-21.333-21.333-21.333h-298.667zM676.437 432.896l-42.667-42.667c-4.011-3.968-9.429-6.229-15.104-6.229h-85.333c-5.675 0-11.093 2.261-15.104 6.229l-42.667 42.667c-8.32 8.32-8.32 21.845 0 30.165s21.845 8.32 30.165 0l36.437-36.395h67.669l36.437 36.437c8.32 8.32 21.845 8.32 30.165 0s8.32-21.845 0-30.208zM475.563 719.104c4.011 3.968 9.429 6.229 15.104 6.229h76.501l10.923 10.923c-0.853 3.413-2.091 6.741-2.091 10.411 0 23.509 19.115 42.667 42.667 42.667s42.667-19.157 42.667-42.667-19.115-42.667-42.667-42.667c-3.669 0-6.997 1.237-10.411 2.091l-17.195-17.195c-3.968-3.968-9.387-6.229-15.061-6.229h-76.501l-36.437-36.437c-4.139-4.139-9.6-6.229-15.061-6.229s-10.923 2.091-15.104 6.229c-8.32 8.32-8.32 21.845 0 30.165l42.667 42.709zM341.333-21.333c0-11.776-9.557-21.333-21.333-21.333s-21.333 9.557-21.333 21.333v396.501l-121.771 121.771c-3.968 3.968-6.229 9.387-6.229 15.061v213.333c0 5.675 2.261 11.093 6.229 15.104l85.333 85.333c4.011 3.968 9.429 6.229 15.104 6.229h85.333c5.675 0 11.093-2.261 15.104-6.229l42.667-42.667c8.32-8.32 8.32-21.845 0-30.165s-21.845-8.32-30.165 0l-36.437 36.395h-67.669l-72.832-72.832v-195.669l121.771-121.771c3.968-3.968 6.229-9.387 6.229-15.061v-405.333zM426.667-21.333c0-11.776-9.557-21.333-21.333-21.333s-21.333 9.557-21.333 21.333v417.835l-121.771 121.728c-3.968 4.011-6.229 9.429-6.229 15.104v85.333c0 5.675 2.261 11.093 6.229 15.104l17.195 17.195c-0.853 3.371-2.091 6.699-2.091 10.368 0 23.509 19.115 42.667 42.667 42.667s42.667-19.157 42.667-42.667-19.115-42.667-42.667-42.667c-3.669 0-6.997 1.237-10.411 2.091l-10.923-10.923v-67.669l121.771-121.771c3.968-3.968 6.229-9.387 6.229-15.061v-426.667zM533.333 21.334c-23.552 0-42.667 19.157-42.667 42.667 0 3.669 1.237 6.997 2.091 10.411l-17.195 17.195c-3.968 3.968-6.229 9.387-6.229 15.061v170.667c0 5.675 2.261 11.093 6.229 15.104l42.667 42.667c8.32 8.32 21.845 8.32 30.165 0s8.32-21.845 0-30.165l-36.395-36.437v-153.003l10.923-10.923c3.413 0.896 6.699 2.091 10.411 2.091 23.552 0 42.667-19.157 42.667-42.667s-19.115-42.667-42.667-42.667zM719.104 219.563l-36.437-36.395v-76.501c0-11.776-9.557-21.333-21.333-21.333s-21.333 9.557-21.333 21.333v85.333c0 5.675 2.261 11.093 6.229 15.104l42.667 42.667c8.32 8.32 21.845 8.32 30.165 0s8.363-21.845 0.043-30.208zM761.771 390.23l-164.437-164.395v-76.501c0-11.776-9.557-21.333-21.333-21.333s-21.333 9.557-21.333 21.333v85.333c0 5.675 2.261 11.093 6.229 15.104l170.667 170.667c8.32 8.32 21.845 8.32 30.165 0s8.363-21.845 0.043-30.208z" />
<glyph unicode="&#xe91e;" glyph-name="Artifical-Intelligence-2" d="M490.667 128.043v-0.043h21.333zM640 384v-128h128v128h-128zM725.333 320c0-11.776-9.557-21.333-21.333-21.333s-21.333 9.557-21.333 21.333c0 11.776 9.557 21.333 21.333 21.333s21.333-9.557 21.333-21.333zM975.104 420.438l-79.104 79.061v119.168c0 5.675-2.261 11.093-6.229 15.104l-36.437 36.395v119.168c0 5.675-2.261 11.093-6.229 15.104l-128 128c-4.011 3.968-9.429 6.229-15.104 6.229h-170.667c-5.675 0-11.093-2.261-15.104-6.229l-27.563-27.605-27.563 27.563c-4.011 4.011-9.429 6.272-15.104 6.272h-170.667c-5.675 0-11.093-2.261-15.104-6.229l-128-128c-3.968-4.011-6.229-9.429-6.229-15.104v-119.168l-36.437-36.395c-3.968-4.011-6.229-9.429-6.229-15.104v-119.168l-79.104-79.104c-3.968-3.968-6.229-9.387-6.229-15.061v-341.333c0-5.675 2.261-11.093 6.229-15.104l128-128c4.011-3.968 9.429-6.229 15.104-6.229h298.667c5.675 0 11.093 2.261 15.104 6.229l27.563 27.563 27.563-27.563c4.011-3.968 9.429-6.229 15.104-6.229h298.667c5.675 0 11.093 2.261 15.104 6.229l128 128c3.968 4.011 6.229 9.429 6.229 15.104v341.333c0 5.675-2.261 11.093-6.229 15.104zM560.896 847.104c8.32 8.32 21.845 8.32 30.165 0l79.104-79.104h76.501c11.776 0 21.333-9.557 21.333-21.333s-9.557-21.333-21.333-21.333h-85.333c-5.675 0-11.093 2.261-15.104 6.229l-85.333 85.333c-8.32 8.363-8.32 21.845 0 30.208zM518.229 761.771c8.32 8.32 21.845 8.32 30.165 0l85.333-85.333c4.011-4.011 6.272-9.429 6.272-15.104v-85.333c0-5.675-2.261-11.093-6.229-15.104l-42.667-42.667c-4.181-4.139-9.643-6.229-15.104-6.229s-10.923 2.091-15.104 6.229c-8.32 8.32-8.32 21.845 0 30.165l36.437 36.437v67.669l-79.104 79.104c-8.32 8.32-8.32 21.803 0 30.165zM262.229 804.438l42.667 42.667c8.32 8.32 21.845 8.32 30.165 0s8.32-21.845 0-30.165l-42.667-42.667c-4.139-4.181-9.6-6.272-15.061-6.272s-10.923 2.091-15.104 6.229c-8.32 8.363-8.32 21.845 0 30.208zM234.667 725.334h76.501l121.771 121.771c8.32 8.32 21.845 8.32 30.165 0s8.32-21.845 0-30.165l-128-128c-4.011-4.011-9.429-6.272-15.104-6.272h-85.333c-11.776 0-21.333 9.557-21.333 21.333s9.557 21.333 21.333 21.333zM234.667 640h85.333c5.675 0 11.093-2.261 15.104-6.229l85.333-85.333c3.968-4.011 6.229-9.429 6.229-15.104v-213.333c0-11.776-9.557-21.333-21.333-21.333s-21.333 9.557-21.333 21.333v204.501l-72.832 72.832h-76.501c-11.776 0-21.333 9.557-21.333 21.333s9.557 21.333 21.333 21.333zM128 353.835v-332.501c0-11.776-9.557-21.333-21.333-21.333s-21.333 9.557-21.333 21.333v341.333c0 5.675 2.261 11.093 6.229 15.104l102.528 102.528c-0.853 3.371-2.091 6.699-2.091 10.368 0 23.509 19.115 42.667 42.667 42.667s42.667-19.157 42.667-42.667-19.115-42.667-42.667-42.667c-3.669 0-6.997 1.237-10.411 2.091l-96.256-96.256zM292.437-36.437c-4.181-4.139-9.643-6.229-15.104-6.229s-10.923 2.091-15.104 6.229l-85.333 85.333c-3.968 4.011-6.229 9.429-6.229 15.104v256c0 5.675 2.261 11.093 6.229 15.104l42.667 42.667c8.32 8.32 21.845 8.32 30.165 0s8.32-21.845 0-30.165l-36.395-36.437v-238.336l79.104-79.104c8.32-8.32 8.32-21.803 0-30.165zM420.437-36.437c-4.181-4.139-9.643-6.229-15.104-6.229s-10.923 2.091-15.104 6.229l-128 128c-3.968 4.011-6.229 9.429-6.229 15.104v170.667c0 5.675 2.261 11.093 6.229 15.104l36.437 36.395v76.501c0 11.776 9.557 21.333 21.333 21.333s21.333-9.557 21.333-21.333v-85.333c0-5.675-2.261-11.093-6.229-15.104l-36.437-36.395v-153.003l121.771-121.771c8.32-8.32 8.32-21.803 0-30.165zM505.771 6.23c-4.181-4.139-9.643-6.229-15.104-6.229s-10.923 2.091-15.104 6.229l-128 128c-3.968 4.011-6.229 9.429-6.229 15.104v42.667c0 7.125 3.584 13.781 9.515 17.749l118.485 79.019v321.067l-10.923 10.923c-3.413-0.853-6.741-2.091-10.411-2.091-23.552 0-42.667 19.157-42.667 42.667s19.115 42.667 42.667 42.667 42.667-19.157 42.667-42.667c0-3.669-1.237-6.997-2.091-10.411l17.195-17.195c3.968-3.968 6.229-9.387 6.229-15.061v-341.333c0-7.125-3.584-13.781-9.515-17.749l-118.485-79.019v-22.4l121.771-121.771c8.32-8.32 8.32-21.803 0-30.165zM789.333-0h-192c-5.675 0-11.093 2.261-15.104 6.229l-81.195 81.195c-3.371-0.853-6.699-2.091-10.368-2.091-23.552 0-42.667 19.157-42.667 42.667s19.115 42.667 42.667 42.667 42.667-19.157 42.667-42.667c0-3.669-1.237-6.997-2.091-10.411l74.923-74.923h183.168c11.776 0 21.333-9.557 21.333-21.333s-9.557-21.333-21.333-21.333zM874.667 85.334h-213.333c-5.675 0-11.093 2.261-15.104 6.229l-42.624 42.624c-1.963 1.963-3.541 4.352-4.651 6.955-1.067 2.645-1.621 5.419-1.621 8.192v64h-21.333c-11.776 0-21.333 9.557-21.333 21.333s9.557 21.333 21.333 21.333h21.333v42.667h-21.333c-11.776 0-21.333 9.557-21.333 21.333s9.557 21.333 21.333 21.333h21.333v42.667h-21.333c-11.776 0-21.333 9.557-21.333 21.333s9.557 21.333 21.333 21.333h21.333v21.333c0 11.776 9.557 21.333 21.333 21.333s21.333-9.557 21.333-21.333v-21.333h42.667v192c0 5.675 2.261 11.093 6.229 15.104l42.667 42.667c8.32 8.32 21.845 8.32 30.165 0s8.32-21.845 0-30.165l-36.395-36.437v-183.168h42.667v149.333c0 11.776 9.557 21.333 21.333 21.333s21.333-9.557 21.333-21.333v-149.333h21.333c11.776 0 21.333-9.557 21.333-21.333s-9.557-21.333-21.333-21.333h-21.333v-42.667h21.333c11.776 0 21.333-9.557 21.333-21.333s-9.557-21.333-21.333-21.333h-21.333v-42.667h21.333c11.776 0 21.333-9.557 21.333-21.333s-9.557-21.333-21.333-21.333h-21.333v-21.333c0-11.776-9.557-21.333-21.333-21.333s-21.333 9.557-21.333 21.333v21.333h-42.667v-21.333c0-11.776-9.557-21.333-21.333-21.333s-21.333 9.557-21.333 21.333v21.333h-42.667v-55.168l30.165-30.165h204.501c11.776 0 21.333-9.557 21.333-21.333s-9.557-21.333-21.333-21.333z" />
<glyph unicode="&#xe91f;" glyph-name="Artist" d="M1024 426.667c0 282.325-229.675 512-512 512s-512-229.675-512-512c0-271.488 212.565-493.696 479.915-510.379 7.339-0.64 14.763-0.896 22.229-1.109 3.328-0.085 6.528-0.512 9.856-0.512 0.341 0 0.64 0.043 0.981 0.043 0.171 0 0.299 0 0.469 0 12.032 0 23.893 0.725 35.669 1.835 119.893 8.661 228.224 58.667 311.211 135.979l1.536 0.683c4.48 1.963 7.595 5.504 9.813 9.643 93.952 92.843 152.32 221.611 152.32 363.819zM42.667 426.667c0 258.773 210.56 469.333 469.333 469.333s469.333-210.56 469.333-469.333c0-127.787-51.456-243.669-134.571-328.363-2.56 0.981-4.992 2.133-7.595 3.029l-86.741 30.165c-11.093 3.883-21.205 9.771-30.421 16.981-29.739-35.712-65.451-63.659-105.216-81.707-15.232-44.885-45.909-109.44-104.789-109.44-58.624 0-89.728 64.555-105.259 109.269-39.253 17.707-74.581 45.184-104.149 80.256-8.661-6.443-17.963-11.861-28.203-15.403l-86.741-30.165c-3.285-1.152-6.4-2.56-9.643-3.84-83.584 84.821-135.339 201.045-135.339 329.216zM624.896 271.104c-14.251-14.293-27.904-10.411-61.611 8.619-17.323 9.728-33.707 18.944-51.285 18.944s-33.963-9.216-51.328-18.987c-33.707-19.029-47.317-22.912-61.611-8.619-8.32 8.32-21.845 8.32-30.165 0s-8.32-21.845 0-30.165c15.701-15.701 32.043-21.291 47.957-21.291 24.192 0 47.189 12.971 64.768 22.869 10.709 6.059 23.979 13.525 30.379 13.525s19.669-7.467 30.379-13.483c17.579-9.899 40.576-22.869 64.768-22.869 15.872 0 32.256 5.589 47.957 21.291 8.32 8.32 8.32 21.845 0 30.165s-21.845 8.32-30.208 0zM212.949 362.667c0-60.8 27.52-106.667 64-106.667 2.347 0 4.992 0.213 7.893 0.768 32.256-76.672 89.173-133.888 156.459-157.909 14.549-47.36 37.76-98.859 70.699-98.859 32.981 0 55.851 51.499 70.016 98.901 67.285 24.021 124.117 81.237 156.373 157.867 2.901-0.555 5.547-0.768 7.893-0.768 36.48 0 64 45.867 64 106.667 0 49.152-17.963 88.533-44.544 101.845-1.536 17.536-4.523 34.261-8.192 50.56 4.651 2.816 8.277 7.296 9.771 12.843 1.237 4.608 29.141 113.835-26.88 169.856-75.989 75.989-182.4 88.747-307.797 36.821-104.533-43.349-219.307-137.472-219.307-179.925 0-42.155 30.293-67.584 45.696-77.824-0.469-4.053-1.152-7.979-1.536-12.117-26.368-13.099-44.544-52.651-44.544-102.059zM723.029 457.216l-48.853-36.821c-13.696 28.843-42.837 48.939-76.843 48.939-31.445 0-58.667-17.28-73.472-42.667h-23.723c-14.805 25.387-42.027 42.667-73.472 42.667-34.048 0-63.232-20.139-76.928-49.024l-49.579 37.035c0.469 6.059 1.152 11.989 1.92 17.835 39.083 10.155 130.219 32.512 190.165 36.907 76.629 5.632 172.885 3.2 221.696 1.365 4.437-17.835 7.595-36.565 9.088-56.235zM597.333 426.667c23.509 0 42.667-19.157 42.667-42.667s-19.157-42.667-42.667-42.667-42.667 19.157-42.667 42.667 19.157 42.667 42.667 42.667zM469.333 384c0-23.509-19.157-42.667-42.667-42.667s-42.667 19.157-42.667 42.667 19.157 42.667 42.667 42.667 42.667-19.157 42.667-42.667zM746.496 298.667c0 0-1.536 0.427-4.309 3.243-5.163 5.291-12.715 7.552-19.968 5.845-7.211-1.664-13.056-6.912-15.445-13.952-25.557-75.307-76.672-131.84-137.771-154.197-18.304 15.659-40.235 31.019-56.917 31.104-0.043-0.043-0.085-0.043-0.085-0.043-16.939 0-39.168-15.403-57.728-31.147-61.141 22.357-112.299 78.891-137.899 154.24-2.389 6.997-8.235 12.288-15.488 13.952-7.083 1.621-14.763-0.597-19.968-5.888-2.603-2.645-4.096-3.157-4.011-3.157-5.333 0.043-21.333 22.741-21.333 64 0 34.304 10.795 54.869 18.048 61.141l68.864-51.413c5.717-41.515 41.088-73.728 84.181-73.728 47.061 0 85.333 38.272 85.333 85.333 0-47.061 38.272-85.333 85.333-85.333 43.136 0 78.464 32.256 84.181 73.813l68.352 51.499c6.784-6.016 17.749-26.624 17.749-61.312 0-41.301-16.043-64-21.12-64z" />
<glyph unicode="&#xe920;" glyph-name="Assignment" d="M320 725.334h384c11.776 0 21.333 9.557 21.333 21.333v42.667c0 35.285-28.715 64-64 64h-64c0 47.061-38.272 85.333-85.333 85.333s-85.333-38.272-85.333-85.333h-64c-35.285 0-64-28.715-64-64v-42.667c0-11.776 9.557-21.333 21.333-21.333zM789.333 810.667h-23.509c1.408-6.912 2.176-14.037 2.176-21.333v-42.667c0-35.285-28.715-64-64-64h-384c-35.285 0-64 28.715-64 64v42.667c0 7.296 0.768 14.421 2.176 21.333h-23.509c-35.285 0-64-28.715-64-64v-768c0-35.285 28.715-64 64-64h554.667c35.285 0 64 28.715 64 64v768c0 35.285-28.715 64-64 64zM320 128c-11.776 0-21.333 9.557-21.333 21.333s9.557 21.333 21.333 21.333 21.333-9.557 21.333-21.333c0-11.776-9.557-21.333-21.333-21.333zM320 256c-11.776 0-21.333 9.557-21.333 21.333s9.557 21.333 21.333 21.333 21.333-9.557 21.333-21.333c0-11.776-9.557-21.333-21.333-21.333zM320 384c-11.776 0-21.333 9.557-21.333 21.333s9.557 21.333 21.333 21.333 21.333-9.557 21.333-21.333c0-11.776-9.557-21.333-21.333-21.333zM320 512c-11.776 0-21.333 9.557-21.333 21.333s9.557 21.333 21.333 21.333 21.333-9.557 21.333-21.333c0-11.776-9.557-21.333-21.333-21.333zM704 128h-298.667c-11.776 0-21.333 9.557-21.333 21.333s9.557 21.333 21.333 21.333h298.667c11.776 0 21.333-9.557 21.333-21.333s-9.557-21.333-21.333-21.333zM704 256h-298.667c-11.776 0-21.333 9.557-21.333 21.333s9.557 21.333 21.333 21.333h298.667c11.776 0 21.333-9.557 21.333-21.333s-9.557-21.333-21.333-21.333zM704 384h-298.667c-11.776 0-21.333 9.557-21.333 21.333s9.557 21.333 21.333 21.333h298.667c11.776 0 21.333-9.557 21.333-21.333s-9.557-21.333-21.333-21.333zM704 512h-298.667c-11.776 0-21.333 9.557-21.333 21.333s9.557 21.333 21.333 21.333h298.667c11.776 0 21.333-9.557 21.333-21.333s-9.557-21.333-21.333-21.333z" />
<glyph unicode="&#xe921;" glyph-name="Astronaut" d="M618.453 223.531c69.973 14.123 120.192 41.131 140.032 69.803-39.168-28.501-91.435-51.541-125.44-57.216-3.584-4.864-8.533-9.131-14.592-12.587zM512 554.667c-150.869 0-256-56.192-256-106.667v-128c0-50.475 105.131-106.667 256-106.667 15.616 0 30.592 0.725 45.184 1.877-26.965 4.992-45.184 20.523-45.184 40.789 0 24.747 26.923 42.667 64 42.667 24.021 0 43.605-7.595 54.528-19.584 47.957 8.533 134.912 63.019 137.472 83.797v85.12c0 50.475-105.131 106.667-256 106.667zM718.421 425.344c-8.661-8.021-22.144-7.467-30.165 1.28-10.453 11.392-71.68 42.709-176.256 42.709-91.563 0-145.493-24.363-159.829-31.829-6.699-3.499-10.837-10.667-10.837-18.773v-98.731c0-11.776-9.557-21.333-21.333-21.333s-21.333 9.557-21.333 21.333v98.731c0 24.064 12.971 45.739 33.835 56.576 21.163 11.051 80.981 36.693 179.499 36.693 113.493 0 187.605-34.688 207.701-56.533 7.979-8.661 7.424-22.144-1.28-30.123zM1024 426.667c0 282.325-229.675 512-512 512s-512-229.675-512-512c0-146.517 62.208-278.528 161.195-371.925 1.92-2.773 4.395-5.035 7.253-6.613 82.688-75.093 189.739-123.477 307.925-131.669 11.733-1.109 23.595-1.792 35.627-1.792 11.989 0 23.851 0.683 35.584 1.792 119.723 8.277 228.011 57.771 311.125 134.528 1.195 1.024 2.389 1.792 3.328 3.029 99.413 93.483 161.963 225.749 161.963 372.651zM42.667 426.667c0 258.773 210.56 469.333 469.333 469.333s469.333-210.56 469.333-469.333c0-131.456-54.485-250.283-141.867-335.573l-74.965 25.003c56.32 62.933 88.107 142.677 88.107 223.488v88.875c-0.043 187.221-153.003 339.541-340.992 339.541s-340.949-152.32-340.949-339.541v-88.875c0-80.469 32.043-160.213 88.832-223.488l-74.965-25.003c-87.381 85.291-141.867 204.117-141.867 335.573zM618.667-0h-213.333c-11.776 0-21.333-9.557-21.333-21.333v-3.157c-14.165 4.011-27.989 8.704-41.557 13.995 5.205 30.123 31.317 53.163 62.891 53.163h213.333c31.573 0 57.685-23.040 62.891-53.12-13.568-5.291-27.435-9.984-41.557-13.995v3.115c0 11.776-9.557 21.333-21.333 21.333zM512 170.667c-167.467 0-298.667 65.621-298.667 149.333v128c0 83.712 131.2 149.333 298.667 149.333s298.667-65.621 298.667-149.333v-128c0-83.712-131.2-149.333-298.667-149.333z" />
<glyph unicode="&#xe922;" glyph-name="At-Symbol-2" d="M938.667 85.334c-28.331 0-42.667 21.547-42.667 64 0 58.795-47.872 106.667-106.667 106.667s-106.667-47.872-106.667-106.667 47.872-106.667 106.667-106.667c32.384 0 61.099 14.805 80.683 37.675 14.464-24.064 37.845-37.675 68.651-37.675 85.333 0 85.333 80.299 85.333 106.667 0 129.408-105.259 234.667-234.667 234.667s-234.667-105.259-234.667-234.667 105.259-234.667 234.667-234.667c61.269 0 119.211 23.424 163.157 66.005 8.491 8.192 8.704 21.717 0.512 30.165-8.192 8.491-21.675 8.661-30.165 0.512-35.968-34.859-83.413-54.016-133.504-54.016-105.856 0-192 86.144-192 192s86.144 192 192 192 192-86.144 192-192c0-47.872-10.752-64-42.667-64zM789.333 85.334c-35.285 0-64 28.715-64 64s28.715 64 64 64 64-28.715 64-64-28.715-64-64-64zM512 149.334c0 92.971 46.293 179.285 123.904 230.955 2.731 1.835 5.035 4.267 6.699 7.125 12.459 21.675 18.731 42.069 18.731 60.544 0 15.104 4.48 21.333 5.163 21.973 6.656 1.664 12.117 6.4 14.635 12.757 2.347 5.888 22.869 58.197 22.869 93.312 0 1.749-0.213 3.499-0.64 5.163-2.347 9.344-8.875 23.040-20.693 31.061v113.109c0 68.736-20.992 96.939-43.093 113.28-4.224 33.109-39.68 100.053-170.24 100.053-132.181 0-213.333-124.245-213.333-213.333v-113.109c-11.819-8.021-18.347-21.717-20.693-31.061-0.427-1.664-0.64-3.413-0.64-5.163 0-35.115 20.523-87.424 22.869-93.269 2.56-6.357 6.315-10.581 12.971-12.245 2.347-1.152 6.827-7.381 6.827-22.485 0-40.533 30.421-85.589 63.061-115.541-4.48-27.947-25.301-101.632-69.803-120.235l-189.355-63.104c-52.011-17.323-69.461-60.928-80.597-105.429-0.427-1.707-0.64-3.456-0.64-5.205v-102.485c0-11.776 9.557-21.333 21.333-21.333h559.147c8.661 0 16.469 5.248 19.755 13.269s1.365 17.237-4.821 23.296c-53.803 52.693-83.413 123.008-83.413 198.101z" />
<glyph unicode="&#xe923;" glyph-name="At-Symbol-3" d="M938.667 85.334c-28.331 0-42.667 21.547-42.667 64 0 58.837-47.872 106.667-106.667 106.667s-106.667-47.829-106.667-106.667 47.872-106.667 106.667-106.667c32.384 0 61.099 14.805 80.683 37.675 14.464-24.064 37.845-37.675 68.651-37.675 85.333 0 85.333 80.299 85.333 106.667 0 129.365-105.259 234.667-234.667 234.667s-234.667-105.301-234.667-234.667 105.259-234.667 234.667-234.667c61.269 0 119.211 23.467 163.157 66.005 8.491 8.192 8.704 21.717 0.512 30.165-8.235 8.491-21.76 8.661-30.165 0.512-35.968-34.859-83.371-54.016-133.504-54.016-105.856 0-192 86.144-192 192s86.144 192 192 192 192-86.144 192-192c0-47.829-10.752-64-42.667-64zM789.333 85.334c-35.285 0-64 28.715-64 64s28.715 64 64 64 64-28.715 64-64-28.715-64-64-64zM640.171 590.080c-3.029-24.277-15.147-46.293-34.219-61.952-3.371-2.731-5.803-6.443-6.955-10.667-6.101-21.504-14.933-42.368-26.197-61.909-3.328-5.803-3.755-12.843-1.152-18.987 2.645-6.187 7.979-10.752 14.464-12.373l53.76-13.397c6.059-1.536 11.733-3.755 17.451-5.888l5.163-1.92c2.389-0.896 4.864-1.323 7.381-1.323 2.901 0 5.845 0.597 8.576 1.792 19.712 8.661 41.003 15.019 63.36 18.816 4.096 0.768 7.936 2.645 10.965 5.461 34.603 32.427 58.667 77.952 66.347 124.416 18.389 6.528 32.256 22.997 34.773 43.264l7.893 63.104c1.835 14.891-2.731 29.909-12.587 41.259-4.864 5.547-10.795 9.941-17.365 13.056l2.645 53.376 10.368 10.411c19.157 20.352 35.115 55.083 2.347 105.131-24.875 37.76-66.603 56.917-124.245 56.917-21.163 0-49.323-1.28-79.573-11.563-6.059-2.048-10.88-6.699-13.141-12.715-2.261-5.973-1.707-12.672 1.493-18.219 29.184-50.304 27.008-102.059-5.888-141.952-6.571-8.021-6.485-19.541 0.213-27.392 17.28-20.395 25.301-47.189 21.973-73.643l-7.851-63.104zM598.443 365.952c-2.048 7.381-7.936 13.141-15.36 15.019l-71.083 17.835-8.747 34.816c31.147 31.829 52.651 74.539 59.819 118.485 18.347 6.571 32.213 22.997 34.731 43.264l7.893 63.104c1.835 14.891-2.731 29.909-12.587 41.259-4.864 5.547-10.795 9.941-17.365 13.056l2.645 53.376 10.368 10.411c19.157 20.352 35.115 55.083 2.347 105.131-24.789 37.803-66.517 56.96-124.16 56.96-22.229 0-73.216 0-121.259-31.659-138.496-3.456-156.459-71.979-156.459-131.584 0-13.525 2.987-41.984 5.248-61.525-7.381-3.115-14.037-7.765-19.371-13.867-10.027-11.349-14.72-26.496-12.843-41.557l7.893-63.061c2.688-21.675 18.347-38.955 38.528-44.459 7.125-42.155 27.52-83.328 56.747-114.475l-9.429-37.717-117.547-29.355c-81.536-20.352-138.453-93.269-138.453-177.323 0-11.776 9.557-21.333 21.333-21.333l472.747-0.043c10.624 0 19.584 7.808 21.12 18.304 8.576 59.691 35.456 113.707 77.824 156.16 5.376 5.461 7.467 13.355 5.419 20.779z" />
<glyph unicode="&#xe924;" glyph-name="At-Symbol" d="M938.667 85.334c-28.331 0-42.667 21.547-42.667 64 0 58.795-47.872 106.667-106.667 106.667s-106.667-47.872-106.667-106.667 47.872-106.667 106.667-106.667c32.384 0 61.099 14.805 80.683 37.675 14.464-24.064 37.845-37.675 68.651-37.675 85.333 0 85.333 80.299 85.333 106.667 0 129.408-105.259 234.667-234.667 234.667s-234.667-105.259-234.667-234.667 105.259-234.667 234.667-234.667c61.269 0 119.211 23.424 163.157 66.005 8.491 8.192 8.704 21.717 0.512 30.165-8.192 8.491-21.675 8.661-30.165 0.512-35.968-34.859-83.413-54.016-133.504-54.016-105.856 0-192 86.144-192 192s86.144 192 192 192 192-86.144 192-192c0-47.872-10.752-64-42.667-64zM789.333 85.334c-35.285 0-64 28.715-64 64s28.715 64 64 64 64-28.715 64-64-28.715-64-64-64zM512 149.334c0 114.091 71.765 218.112 178.603 258.901 7.125 2.688 12.203 9.003 13.44 16.469 0.256 1.451 0.469 2.859 0.683 4.267 24.363 6.741 43.221 27.605 46.464 53.76l10.667 85.333c2.261 18.005-3.285 36.224-15.232 49.877-6.997 8.021-15.829 14.080-25.6 17.792l3.925 80.341 15.957 16c24.021 25.557 43.947 69.376 2.304 132.949-32.043 48.853-86.4 73.643-161.664 73.643-29.696 0-98.048 0-161.707-42.752-181.76-3.797-206.507-88.235-206.507-170.581 0-19.157 4.651-62.293 7.723-88.32-10.965-3.456-20.949-9.856-28.715-18.645-12.117-13.781-17.792-32.085-15.488-50.304l10.667-85.333c3.499-27.819 24.619-49.707 51.328-54.912 8.832-58.667 37.248-116.224 78.464-158.805l-14.848-59.435-163.413-40.875c-93.568-23.339-139.051-99.456-139.051-232.704 0-5.675 2.261-11.093 6.229-15.104s9.472-6.229 15.104-6.229l559.104 0.043c8.661 0 16.469 5.248 19.755 13.269s1.365 17.237-4.821 23.296c-53.76 52.693-83.371 123.008-83.371 198.059z" />
<glyph unicode="&#xe925;" glyph-name="At" d="M707.797 639.659c-11.477 1.877-22.699-5.589-24.789-17.152l-3.029-16.725c-45.483 32.128-112.427 42.539-177.451 26.112-86.613-21.803-152.789-86.485-181.547-177.493-17.835-56.491-7.168-119.296 28.501-168.021 34.048-46.421 85.504-73.045 141.184-73.045 72.832 0 130.347 44.16 163.968 99.84 30.208-68.181 103.808-99.84 177.365-99.84 90.624 0 192 91.264 192 213.333 0 282.325-229.675 512-512 512s-512-229.675-512-512 229.675-512 512-512c116.949 0 227.072 38.357 318.379 111.019 9.216 7.339 10.752 20.736 3.456 29.995-7.381 9.216-20.779 10.795-29.995 3.413-83.712-66.603-184.619-101.76-291.84-101.76-258.773 0-469.333 210.56-469.333 469.333s210.56 469.333 469.333 469.333 469.333-210.56 469.333-469.333c0-96.128-80.256-170.667-149.333-170.667-68.907 0-149.333 33.536-149.675 124.16l42.667 234.667c2.133 11.648-5.589 22.699-17.195 24.832zM490.667 256c-41.899 0-80.853 20.309-106.709 55.637-27.691 37.803-36.011 86.357-22.272 129.963 33.109 104.789 108.971 138.283 151.253 148.907 59.093 14.805 121.344 2.859 154.837-29.781 1.109-1.067 2.432-1.579 3.669-2.347l-30.379-168.32c-0.128-0.427-0.427-0.725-0.512-1.152-12.459-53.461-62.72-132.907-149.888-132.907z" />
<glyph unicode="&#xe926;" glyph-name="Atlas" d="M202.155 790.187c77.995 65.877 178.645 105.813 288.512 105.813 109.909 0 210.517-39.936 288.555-105.813l30.805 121.941c1.621 6.357 0.213 13.141-3.84 18.347s-10.283 8.192-16.853 8.192h-597.333c-6.571 0-12.8-3.029-16.853-8.235s-5.461-11.947-3.84-18.347l30.848-121.899zM779.563 106.155c-78.080-66.091-178.816-106.155-288.896-106.155s-210.816 40.064-288.896 106.155l-30.464-122.325c-1.579-6.357-0.128-13.141 3.925-18.304 4.011-5.163 10.197-8.192 16.768-8.192h597.333c6.571 0 12.757 3.029 16.811 8.192 4.053 5.205 5.504 11.947 3.925 18.304l-30.507 122.325zM597.333 222.806c-1.323 8.405 2.56 17.152 10.325 21.717 0.085 0 0.128 0.043 0.213 0.085 72.448 41.899 117.461 119.808 117.461 203.392 0 83.328-44.8 161.067-116.907 203.008-6.699 3.712-11.093 10.795-11.093 18.688v168.917c-27.435 7.509-55.936 12.075-85.333 13.653v-257.067c72.192-10.453 128-72.149 128-147.157s-55.808-136.704-128-147.157v-257.067c29.397 1.536 57.899 6.144 85.333 13.653v165.333zM469.333 43.734v257.067c-72.192 10.453-128 72.149-128 147.157s55.808 136.704 128 147.157v257.152c-29.397-1.536-57.899-6.144-85.333-13.653v-168.917c0-7.637-4.096-14.677-10.667-18.475-72.363-41.813-117.333-119.68-117.333-203.221 0-83.243 44.629-160.853 116.565-202.837 0.683-0.341 1.28-0.725 1.92-1.152 6.784-4.523 10.24-12.288 9.515-19.925v-166.741c27.435-7.467 55.936-12.075 85.333-13.611zM896 448c0 170.752-106.24 316.843-256 376.448v-142.763c79.232-50.773 128-139.179 128-233.728s-48.768-182.955-128-233.728v-142.72c149.76 59.648 256 205.739 256 376.491zM341.333 71.552v142.72c-79.232 50.773-128 139.179-128 233.728s48.768 182.997 128 233.728v142.72c-149.76-59.605-256-205.696-256-376.448s106.24-316.843 256-376.448zM597.333 448c0 58.795-47.829 106.667-106.667 106.667s-106.667-47.872-106.667-106.667 47.829-106.667 106.667-106.667 106.667 47.872 106.667 106.667zM448 448c0 23.509 19.115 42.667 42.667 42.667s42.667-19.157 42.667-42.667-19.115-42.667-42.667-42.667-42.667 19.157-42.667 42.667z" />
<glyph unicode="&#xe927;" glyph-name="Attach-2" d="M448 64c0 89.003 63.189 167.68 150.315 187.136 6.144 1.365 11.349 5.376 14.251 10.965s3.2 12.117 0.853 17.963c-8.789 21.504-13.312 41.131-15.104 52.437 32.64 29.909 63.061 75.008 63.061 115.499 0 15.104 4.48 21.333 5.163 21.973 6.656 1.664 12.075 6.4 14.635 12.8 2.347 5.803 22.827 58.155 22.827 93.227 0 1.749-0.213 3.499-0.64 5.163-2.347 9.387-8.875 23.040-20.693 31.061v113.109c0 68.736-20.992 96.896-43.136 113.28-4.139 33.109-39.595 100.053-170.197 100.053-132.139 0-213.333-124.245-213.333-213.333v-113.109c-11.819-8.021-18.347-21.675-20.693-31.061-0.427-1.664-0.64-3.413-0.64-5.163 0-35.072 20.48-87.424 22.869-93.269 2.56-6.357 6.272-10.581 12.971-12.245 2.347-1.152 6.827-7.381 6.827-22.485 0-40.491 30.421-85.589 63.061-115.541-4.437-27.947-25.301-101.632-69.803-120.192l-189.355-63.104c-52.011-17.323-69.461-60.928-80.64-105.472-0.384-1.707-0.597-3.456-0.597-5.205v-102.485c0-11.776 9.557-21.333 21.333-21.333h449.024c8.064 0 15.488 4.565 19.072 11.819 3.627 7.253 2.773 15.915-2.091 22.357-25.728 34.091-39.339 73.899-39.339 115.157zM917.333 213.334h-277.333c-82.347 0-149.333-66.987-149.333-149.333s66.987-149.333 149.333-149.333h213.333c11.776 0 21.333 9.557 21.333 21.333s-9.557 21.333-21.333 21.333h-213.333c-58.837 0-106.667 47.829-106.667 106.667s47.829 106.667 106.667 106.667h277.333c35.285 0 64-28.715 64-64s-28.715-64-64-64h-277.333c-11.733 0-21.333 9.6-21.333 21.333s9.557 21.333 21.333 21.333h213.333c11.776 0 21.333 9.557 21.333 21.333s-9.557 21.333-21.333 21.333h-213.333c-35.285 0-64-28.715-64-64s28.672-64 64-64h277.333c58.837 0 106.667 47.829 106.667 106.667s-47.872 106.667-106.667 106.667z" />
<glyph unicode="&#xe928;" glyph-name="Attach-3" d="M917.333 213.334h-277.333c-82.347 0-149.333-66.987-149.333-149.333s66.987-149.333 149.333-149.333h213.333c11.776 0 21.333 9.557 21.333 21.333s-9.557 21.333-21.333 21.333h-213.333c-58.837 0-106.667 47.829-106.667 106.667s47.829 106.667 106.667 106.667h277.333c35.285 0 64-28.715 64-64s-28.715-64-64-64h-277.333c-11.733 0-21.333 9.6-21.333 21.333s9.557 21.333 21.333 21.333h213.333c11.776 0 21.333 9.557 21.333 21.333s-9.557 21.333-21.333 21.333h-213.333c-35.285 0-64-28.715-64-64s28.672-64 64-64h277.333c58.837 0 106.667 47.829 106.667 106.667s-47.872 106.667-106.667 106.667zM640.171 590.080c-2.987-24.277-15.147-46.293-34.176-61.952-3.371-2.731-5.803-6.485-6.997-10.667-6.059-21.461-14.848-42.283-26.155-61.909-3.371-5.803-3.797-12.843-1.152-18.987 2.603-6.187 7.979-10.752 14.464-12.373l53.845-13.483c72.149-18.048 130.688-70.656 156.587-140.757 3.072-8.363 11.051-13.952 19.968-13.952h100.779c20.565 0 40.747-4.309 59.989-12.8 2.773-1.237 5.717-1.835 8.619-1.835 5.675 0 11.307 2.304 15.36 6.528 6.229 6.443 7.723 16.128 3.797 24.149-23.936 48.811-67.499 84.267-119.552 97.237l-117.547 29.525-8.661 34.816c31.104 31.829 52.608 74.539 59.776 118.485 18.389 6.571 32.256 22.997 34.731 43.307l7.893 63.104c1.877 14.933-2.731 29.952-12.629 41.259-4.821 5.547-10.752 9.984-17.28 13.056l2.603 53.376 10.368 10.411c19.157 20.352 35.072 55.083 2.304 105.131-24.747 37.76-66.517 56.917-124.117 56.917-21.163 0-49.323-1.28-79.573-11.563-6.059-2.048-10.88-6.699-13.141-12.715-2.261-5.973-1.707-12.672 1.493-18.176 29.141-50.389 27.008-102.144-5.888-141.995-6.571-7.979-6.485-19.499 0.171-27.392 17.28-20.395 25.301-47.189 22.016-73.685l-7.893-63.061zM640 256h81.749c0.299-0.043 0.64 0 0.853 0 11.776 0 21.333 9.557 21.333 21.333 0 6.229-2.688 11.861-6.955 15.787-25.472 38.229-63.36 65.195-107.392 76.203l-117.589 29.483-8.661 34.816c31.104 31.829 52.608 74.539 59.776 118.485 18.389 6.571 32.256 22.997 34.731 43.307l7.893 63.104c1.877 14.933-2.731 29.952-12.629 41.259-4.821 5.547-10.752 9.984-17.28 13.056l2.603 53.376 10.368 10.411c19.157 20.352 35.072 55.083 2.304 105.131-24.747 37.76-66.517 56.917-124.117 56.917-22.229 0-73.216 0-121.301-31.659-138.496-3.456-156.459-71.979-156.459-131.584 0-13.525 2.944-41.984 5.205-61.525-7.339-3.115-13.952-7.765-19.328-13.909-10.027-11.349-14.72-26.496-12.8-41.515l7.893-63.104c2.688-21.675 18.347-38.912 38.528-44.459 7.125-42.112 27.52-83.285 56.747-114.475l-9.429-37.717-117.589-29.355c-81.536-20.309-138.453-93.227-138.453-177.28 0-11.776 9.557-21.333 21.333-21.333l449.067-0.043c6.656 0 12.971 3.115 16.981 8.448 37.035 48.853 92.629 76.843 152.619 76.843z" />
<glyph unicode="&#xe929;" glyph-name="Attach-User" d="M448 64c0 91.093 64.853 170.24 154.197 188.16 5.675 1.152 10.325 5.845 13.44 10.709 0.341 0.555 0.683 1.067 0.896 1.664 39.765 39.125 68.309 92.075 79.957 147.115 3.968 3.2 6.741 7.851 7.595 13.184 0.213 1.408 0.427 2.773 0.64 4.139 24.363 6.741 43.221 27.605 46.464 53.76l10.667 85.333c2.261 18.005-3.285 36.224-15.232 49.877-6.997 8.021-15.829 14.080-25.6 17.792l3.925 80.341 15.957 15.957c24.021 25.6 43.947 69.376 2.304 132.992-32 48.853-86.357 73.643-161.621 73.643-29.653 0-98.048 0-161.749-42.752-181.76-3.797-206.507-88.235-206.507-170.581 0-19.157 4.693-62.293 7.723-88.32-10.965-3.456-20.907-9.856-28.672-18.645-12.117-13.739-17.792-32.085-15.531-50.304l10.667-85.333c3.456-27.819 24.619-49.707 51.285-54.912 8.875-58.667 37.248-116.224 78.464-158.805l-14.848-59.435-163.413-40.875c-93.525-23.339-139.008-99.456-139.008-232.704 0-5.675 2.261-11.093 6.229-15.104s9.472-6.229 15.104-6.229l448.981 0.043c8.064 0 15.488 4.565 19.072 11.819 3.627 7.253 2.816 15.915-2.091 22.357-25.685 34.133-39.296 73.899-39.296 115.115zM917.333 213.334h-277.333c-82.347 0-149.333-66.987-149.333-149.333s66.987-149.333 149.333-149.333h213.333c11.776 0 21.333 9.557 21.333 21.333s-9.557 21.333-21.333 21.333h-213.333c-58.837 0-106.667 47.872-106.667 106.667s47.829 106.667 106.667 106.667h277.333c35.285 0 64-28.715 64-64s-28.715-64-64-64h-277.333c-11.733 0-21.333 9.557-21.333 21.333s9.557 21.333 21.333 21.333h213.333c11.776 0 21.333 9.557 21.333 21.333s-9.557 21.333-21.333 21.333h-213.333c-35.285 0-64-28.715-64-64s28.672-64 64-64h277.333c58.837 0 106.667 47.872 106.667 106.667s-47.872 106.667-106.667 106.667z" />
<glyph unicode="&#xe92a;" glyph-name="Audio" d="M938.667 874.667c0 20.779-10.112 40.32-27.136 52.309-16.896 11.947-38.784 14.976-58.368 7.979l-511.957-182.912c-25.429-9.003-42.539-33.237-42.539-60.245v-578.688c-33.024 20.651-81.579 27.392-132.736 14.805-48.085-11.776-88.917-39.125-109.312-73.045-13.099-21.803-17.067-44.843-11.563-66.688 11.563-45.611 61.099-73.685 121.813-73.685 16.427 0 33.664 2.091 51.157 6.357 48.043 11.733 88.875 39.040 109.312 72.96 9.259 15.445 13.739 31.531 13.739 47.403 0.043 0.469 0.256 0.768 0.256 1.195v475.904l554.667 198.101v-475.349c-33.067 20.651-81.579 27.349-132.736 14.848-48.085-11.776-88.917-39.125-109.312-73.045-13.099-21.803-17.067-44.843-11.563-66.688 11.563-45.611 61.099-73.685 121.813-73.685 16.427 0 33.664 2.091 51.157 6.357 48.043 11.733 88.875 39.040 109.312 72.96 12.075 20.096 16 41.259 12.288 61.568 1.109 2.603 1.707 5.419 1.707 8.363v682.923z" />
<glyph unicode="&#xe92b;" glyph-name="Avatar-Chef" d="M405.333 341.334h42.667c11.776 0 21.333 9.557 21.333 21.333s-9.557 21.333-21.333 21.333h-42.667c-11.776 0-21.333-9.557-21.333-21.333s9.557-21.333 21.333-21.333zM576 341.334h42.667c11.776 0 21.333 9.557 21.333 21.333s-9.557 21.333-21.333 21.333h-42.667c-11.776 0-21.333-9.557-21.333-21.333s9.557-21.333 21.333-21.333zM624.896 271.104c-14.208-14.251-27.904-10.453-61.568 8.576-17.323 9.771-33.749 18.987-51.328 18.987s-34.005-9.216-51.328-18.987c-33.664-18.944-47.36-22.912-61.568-8.576-8.32 8.32-21.845 8.32-30.165 0s-8.32-21.845 0-30.165c15.659-15.701 32.043-21.291 47.915-21.291 24.192 0 47.189 12.971 64.811 22.869 10.624 6.016 23.936 13.483 30.336 13.483s19.712-7.467 30.379-13.483c17.579-9.899 40.576-22.869 64.811-22.869 15.829 0 32.256 5.589 47.915 21.291 8.32 8.32 8.32 21.845 0 30.165s-21.845 8.32-30.208 0zM256 463.702c-25.387-13.995-42.667-52.821-42.667-101.035 0-60.8 27.52-106.667 64-106.667 2.347 0 4.949 0.213 7.893 0.768 43.861-104.917 130.773-171.435 226.773-171.435s182.912 66.517 226.773 171.435c2.944-0.555 5.547-0.768 7.893-0.768 36.48 0 64 45.867 64 106.667 0 48.213-17.28 87.040-42.667 101.035v80.981c25.984 23.509 42.667 57.131 42.667 94.891 0 70.741-57.429 128.299-128 128.299-16.384 0-32.853-3.371-48.341-9.856-32.213 33.664-75.861 52.651-122.325 52.651-46.421 0-90.112-18.987-122.283-52.608-15.488 6.528-31.701 9.856-48.384 9.856-70.571 0-128-57.557-128-128.299 0-37.76 16.683-71.424 42.667-94.891v-81.024zM746.923 298.667c-0.043 0-1.536 0.427-4.267 3.2-5.205 5.333-12.928 7.509-19.968 5.888-7.253-1.664-13.141-6.955-15.488-13.952-34.219-100.736-110.805-165.803-195.2-165.803s-160.981 65.067-195.2 165.803c-2.389 6.997-8.235 12.288-15.488 13.952-1.536 0.341-3.115 0.512-4.693 0.512-5.675 0-11.179-2.261-15.232-6.4-2.645-2.688-4.139-3.2-4.053-3.2-5.333 0.043-21.333 22.741-21.333 64 0 41.301 16.043 64 21.333 64 11.776 0 21.333 9.557 21.333 21.333v11.563c29.013-9.984 78.080-23.211 143.787-29.355 1.152-0.128 2.261-0.256 3.413-0.341 7.467-0.683 15.019-1.237 22.869-1.664 13.995-0.896 28.288-1.536 43.264-1.536s29.269 0.64 43.221 1.493c7.893 0.469 15.403 1.024 22.869 1.664 1.152 0.128 2.261 0.256 3.413 0.341 65.707 6.144 114.773 19.371 143.787 29.355v-11.52c0-11.776 9.557-21.333 21.333-21.333 5.291 0 21.333-22.699 21.333-64s-16-64-21.035-64zM378.581 696.32c7.595 9.045 20.992 10.197 30.037 2.731 9.045-7.552 10.24-20.992 2.688-30.037-14.891-17.92-24.405-38.571-27.563-59.733-1.536-10.624-10.667-18.219-21.035-18.219-1.024 0-2.133 0.085-3.157 0.213-11.691 1.749-19.712 12.629-17.963 24.277 4.224 28.885 17.024 56.832 36.992 80.768zM1024 426.667c0 282.325-229.675 512-512 512s-512-229.675-512-512c0-272.299 213.845-495.019 482.389-510.507 8.277-0.811 16.555-1.109 24.789-1.237 1.621-0.043 3.2-0.256 4.821-0.256 1.493 0 2.901 0.213 4.352 0.213 8.405 0.128 16.811 0.469 25.259 1.28 268.544 15.488 482.389 238.208 482.389 510.507zM42.667 426.667c0 258.773 210.56 469.333 469.333 469.333s469.333-210.56 469.333-469.333c0-134.229-56.96-255.147-147.584-340.779l-116.053 38.699-6.827 10.24c-53.632-58.24-123.605-92.16-198.869-92.16s-145.237 33.92-198.869 92.16l-6.827-10.24-116.053-38.699c-90.624 85.632-147.584 206.549-147.584 340.779z" />
<glyph unicode="&#xe92c;" glyph-name="Back-Arrow" d="M1002.667 618.667h-417.835l91.563 91.563c8.32 8.32 8.32 21.845 0 30.165l-170.667 170.667c-8.32 8.32-21.845 8.32-30.165 0l-469.333-469.333c-8.32-8.32-8.32-21.845 0-30.165l469.333-469.333c4.181-4.181 9.643-6.229 15.104-6.229s10.923 2.091 15.104 6.229l170.667 170.667c8.32 8.32 8.32 21.845 0 30.165l-91.605 91.605h417.835c11.776 0 21.333 9.557 21.333 21.333v341.333c0 11.776-9.557 21.333-21.333 21.333z" />
<glyph unicode="&#xe92d;" glyph-name="Badminton" d="M935.552 524.374c26.88 31.36 48.64 67.925 63.829 106.539 0.597 1.152 1.109 2.304 1.451 3.541 14.848 38.912 23.168 79.573 23.168 118.613 0 25.685-5.291 50.176-14.763 72.448-0.512 1.536-1.451 2.901-2.347 4.309-17.707 38.741-48.427 69.931-86.485 88.875-0.299 0.299-0.384 0.725-0.683 1.024-4.224 4.224-9.728 6.272-15.232 6.229-20.565 7.893-42.709 12.715-66.091 12.715-37.632 0-77.269-8.149-115.413-22.784-3.371-0.512-6.528-1.835-9.387-3.968-39.083-16.128-76.16-38.997-107.733-67.029 0 0 0 0 0 0v0c-55.595-49.365-93.867-114.219-93.867-185.685 0-39.936 8.021-75.349 21.675-106.368 0.427-4.821 2.219-9.557 5.888-13.269 0.341-0.341 0.768-0.427 1.109-0.725 6.144-11.563 13.184-22.229 21.205-32.171l-352.043-352c-18.304 6.741-39.595 3.072-54.272-11.605l-149.333-149.333c-8.32-8.32-8.32-21.845 0-30.165l42.667-42.667c4.181-4.139 9.643-6.229 15.104-6.229s10.923 2.091 15.104 6.229l149.333 149.333c14.677 14.677 18.347 35.968 11.605 54.272l352.043 352c9.941-7.979 20.608-15.061 32.128-21.163 0.299-0.341 0.427-0.768 0.725-1.109 3.712-3.712 8.448-5.461 13.269-5.888 30.976-13.653 66.389-21.675 106.325-21.675 26.752 0 52.395 5.419 76.672 14.592 2.517 0.384 4.864 1.195 7.125 2.475 37.888 15.701 71.893 41.515 100.693 73.259 0.896 0.64 1.963 1.024 2.773 1.835 1.664 1.621 2.731 3.584 3.755 5.547zM822.571 487.595l-67.072 67.072 55.168 55.168 76.459-76.459c-19.371-18.987-41.045-34.688-64.555-45.781zM581.888 551.723l58.112 58.112 55.168-55.168-58.112-58.112c-22.955 13.653-41.515 32.213-55.168 55.168zM554.667 659.2c0 10.923 1.536 21.632 3.712 32.256l51.456-51.456-45.696-45.696c-5.76 19.84-9.472 41.173-9.472 64.896zM670.165 640l55.168 55.168 55.168-55.168-55.168-55.168-55.168 55.168zM721.92 869.248l58.581-58.581-55.168-55.168-72.747 72.789c21.291 16.256 44.8 30.080 69.333 40.96zM810.667 780.502l55.168-55.168-55.168-55.168-55.168 55.168 55.168 55.168zM840.832 640l55.168 55.168 59.819-59.819c-10.624-24.875-24.192-48.597-40.405-69.931l-74.581 74.581zM981.333 753.067c0-23.936-3.541-48.597-9.984-72.917l-45.184 45.184 52.651 52.651c1.451-8.107 2.517-16.384 2.517-24.917zM962.688 822.23l-66.688-66.731-55.168 55.168 66.731 66.688c23.168-12.928 42.197-31.957 55.125-55.125zM863.317 893.483l-52.651-52.651-44.544 44.544c24.277 6.869 48.768 10.624 72.277 10.624 8.533 0 16.811-1.067 24.917-2.517zM620.501 800.043l74.667-74.709-55.168-55.168-66.048 66.091c11.392 22.955 27.349 44.416 46.549 63.787zM679.637 478.806l45.696 45.696 51.755-51.755c-10.667-2.005-21.461-3.413-32.555-3.413-23.723 0-45.056 3.712-64.896 9.472z" />
<glyph unicode="&#xe92e;" glyph-name="Baguette" d="M974.677 889.771c-39.339 39.083-93.909 54.315-162.048 45.355-96.341-12.629-211.157-73.216-323.456-157.653 38.571 7.723 79.317 11.819 108.501 11.819 93.099 0 172.16-58.539 172.672-127.829 0.085-11.776-9.387-21.419-21.163-21.504-0.043 0-0.128 0-0.128 0-11.733 0-21.291 9.429-21.376 21.163-0.341 45.525-61.099 85.504-130.005 85.504-58.795 0-153.173-17.621-179.541-38.187-5.461-4.139-12.117-5.035-18.261-3.499-36.053-31.573-71.083-64.981-104.619-99.627 49.877 11.947 105.429 13.312 127.915 13.312 93.696 0 173.312-58.539 173.781-127.829 0.085-11.776-9.387-21.419-21.163-21.504-0.043 0-0.128 0-0.128 0-11.733 0-21.291 9.429-21.376 21.163-0.341 45.525-61.611 85.504-131.115 85.504-80.469 0-151.936-15.019-173.824-36.437-0.725-0.768-1.493-1.408-2.304-2.005-5.12-3.84-11.563-4.864-17.579-3.584-44.416-51.328-84.267-103.723-117.632-154.88 37.931 16.555 81.92 26.283 111.829 26.283 87.723 0 159.488-57.344 160-127.829 0.085-11.776-9.387-21.419-21.163-21.504-0.043 0-0.128 0-0.128 0-11.733 0-21.291 9.429-21.376 21.163-0.341 46.336-54.059 85.504-117.333 85.504-49.963 0-124.501-28.629-142.421-54.741-3.797-5.589-9.771-8.448-16.043-8.917-77.824-148.224-84.651-266.709-16.725-335.36 31.445-31.787 74.069-47.915 125.483-47.915 25.003 0 52.139 3.797 81.067 11.477 272.811 72.363 682.325 481.963 755.456 755.584 23.68 88.619 11.307 160.171-35.797 206.976z" />
<glyph unicode="&#xe92f;" glyph-name="Bald-Man" d="M1024 426.667c0 282.325-229.675 512-512 512s-512-229.675-512-512c0-142.037 58.24-270.72 151.979-363.563 2.304-4.48 5.973-7.467 10.283-9.344 82.347-77.269 189.995-127.616 309.205-137.045 12.416-1.237 24.917-2.048 37.632-2.048 0.555 0 1.067 0.043 1.579 0.085 0.469 0 0.896-0.085 1.323-0.085 4.224 0 8.363 0.555 12.587 0.64 5.803 0.256 11.648 0.384 17.408 0.896 268.331 15.659 482.005 238.293 482.005 510.464zM512 896c258.773 0 469.333-210.56 469.333-469.333 0-128.213-51.797-244.48-135.381-329.259-3.243 1.28-6.357 2.688-9.685 3.883l-86.741 30.165c-12.715 4.437-24.32 11.136-34.56 19.925l-4.395 3.755c-32-44.757-73.685-85.845-126.123-101.333-3.243-1.024-7.68-2.389-12.245-3.541-6.656-1.621-12.672-2.901-18.773-3.925-14.336-2.432-27.52-3.669-40.064-3.669s-25.771 1.237-40.533 3.755c-5.589 0.939-11.563 2.219-17.536 3.627-5.461 1.365-9.813 2.688-14.208 4.096-53.12 15.659-95.616 58.24-127.957 103.381l-7.168-6.144c-10.197-8.789-21.803-15.488-34.517-19.925l-86.784-30.165c-2.56-0.896-4.949-2.005-7.467-2.987-83.072 84.693-134.528 200.576-134.528 328.363 0 258.773 210.56 469.333 469.333 469.333zM277.333 298.667c2.261 0 4.779 0.171 7.552 0.725 33.237-85.291 93.995-182.4 169.045-204.544 3.627-1.152 7.211-2.261 11.136-3.243 5.035-1.195 9.984-2.304 14.933-3.115 10.965-1.877 22.059-3.157 33.365-3.157s22.357 1.28 33.195 3.115c5.077 0.853 10.069 1.92 15.317 3.2 3.669 0.896 7.253 2.005 10.496 3.029 73.557 21.717 132.651 116.011 166.741 204.629 2.773-0.469 5.333-0.64 7.552-0.64 36.48 0 64 45.867 64 106.667 0 49.408-18.176 88.96-44.544 102.059-13.824 156.587-114.389 260.608-254.123 260.608s-240.299-104.021-254.123-260.608c-26.368-13.099-44.544-52.651-44.544-102.059 0-60.8 27.52-106.667 64-106.667zM278.144 469.334c11.392 0 20.736 8.917 21.333 20.267 7.168 143.189 90.581 235.733 212.523 235.733s205.355-92.544 212.565-235.733c0.597-11.349 9.941-20.267 21.333-20.267h0.768c5.333 0 21.333-22.699 21.333-64s-16-64-21.077-64c0 0-1.536 0.427-4.267 3.2-5.205 5.291-12.8 7.467-19.968 5.888-7.211-1.664-13.099-6.955-15.445-13.952-27.477-80.768-82.389-181.803-147.328-200.96-2.816-0.896-5.675-1.749-8.32-2.432-3.968-0.939-7.936-1.835-12.075-2.56-17.195-2.901-34.987-2.944-52.437 0.043-4.053 0.64-8.021 1.536-11.691 2.432-2.859 0.768-5.717 1.621-8.917 2.645-62.165 18.347-121.131 116.949-149.675 200.832-2.389 6.997-8.235 12.288-15.445 13.952-1.579 0.341-3.157 0.512-4.736 0.512-5.675 0-11.179-2.261-15.232-6.4-2.645-2.688-4.139-3.2-4.053-3.2-5.333 0.043-21.333 22.741-21.333 64 0 41.301 16 64 22.144 64zM405.333 426.667h42.667c11.776 0 21.333 9.557 21.333 21.333s-9.557 21.333-21.333 21.333h-42.667c-11.776 0-21.333-9.557-21.333-21.333s9.557-21.333 21.333-21.333zM576 426.667h42.667c11.776 0 21.333 9.557 21.333 21.333s-9.557 21.333-21.333 21.333h-42.667c-11.776 0-21.333-9.557-21.333-21.333s9.557-21.333 21.333-21.333z" />
<glyph unicode="&#xe930;" glyph-name="Balloons-1" d="M891.648 632.107c-11.776 55.68-47.104 105.131-99.371 139.221-112.939 73.771-241.109 43.051-319.019-76.245-71.125-109.056-48.469-285.824-4.011-357.205l-32.981-21.291c-6.4-4.139-10.112-11.435-9.728-19.072s4.907-14.464 11.733-17.92l2.645-1.323-57.088-194.133v214.528c7.381 0 14.251 3.84 18.176 10.112 3.883 6.272 4.224 14.165 0.896 20.736l-9.643 19.285c6.656 2.901 13.312 6.272 19.797 10.283-37.547 99.029-43.051 255.829 24.448 359.296 32.597 49.877 74.453 86.955 121.173 109.696-40.576 69.333-110.976 110.592-196.181 110.592-140.373 0-234.667-104.107-234.667-259.029 0-144.341 124.715-295.168 204.032-330.539l-9.771-19.541c-3.285-6.613-2.944-14.464 0.896-20.736 3.925-6.315 10.795-10.155 18.176-10.155v-362.667c0-0.427 0.213-0.768 0.256-1.195 0.085-1.493 0.469-2.859 0.853-4.267 0.341-1.28 0.597-2.56 1.195-3.712 0.597-1.237 1.408-2.219 2.219-3.328 0.853-1.109 1.579-2.219 2.645-3.157 0.939-0.853 2.005-1.408 3.115-2.091 1.323-0.811 2.56-1.621 4.053-2.133 0.384-0.128 0.64-0.427 1.024-0.555 1.963-0.64 3.968-0.896 5.973-0.896 4.267 0 8.064 1.579 11.392 3.755 0.683 0.427 1.237 0.768 1.877 1.237 3.115 2.517 5.419 5.76 6.741 9.643 0.085 0.299 0.384 0.384 0.469 0.683l96.725 328.917 1.28-0.64c2.987-1.493 6.272-2.261 9.515-2.261 3.328 0 6.613 0.768 9.685 2.304 6.059 3.072 10.24 8.832 11.392 15.488l4.821 28.672c10.624-2.56 22.315-3.925 34.987-3.925 36.523 0 79.104 9.216 113.28 20.48 82.176 27.136 150.016 74.368 186.069 129.664 39.424 60.373 53.589 123.819 40.917 183.424zM255.829 679.638c0-11.776-9.557-21.333-21.333-21.333s-21.333 9.557-21.333 21.333c0 107.136 57.216 173.696 149.333 173.696 11.776 0 21.333-9.557 21.333-21.333s-9.515-21.333-21.333-21.333c-67.797 0-106.667-47.787-106.667-131.029zM580.48 625.11c-4.139-6.272-10.923-9.685-17.877-9.685-4.053 0-8.064 1.109-11.648 3.499-9.856 6.443-12.629 19.627-6.229 29.525 50.688 77.483 129.963 97.749 200.917 51.499 9.856-6.443 12.629-19.669 6.229-29.525-6.4-9.899-19.584-12.672-29.525-6.187-18.603 12.117-37.163 18.304-55.168 18.304-40.704-0.043-69.632-31.275-86.699-57.429z" />
<glyph unicode="&#xe931;" glyph-name="Balloons-2" d="M853.333 566.144c0 106.283-78.763 192.683-178.048 200.363 4.651-20.139 7.381-41.003 7.381-62.507 0-20.267-3.243-43.904-8.32-68.821 4.949-3.925 8.32-9.728 8.32-16.512 0-10.411-7.637-18.688-17.493-20.565-23.68-84.011-70.229-178.048-131.584-238.037 26.283-45.056 59.435-83.115 96.469-97.579l-30.464-60.971c-3.285-6.613-2.944-14.464 0.896-20.736 3.925-6.272 10.795-10.112 18.176-10.112h21.333v-234.667c0-11.776 9.557-21.333 21.333-21.333s21.333 9.557 21.333 21.333v234.667h21.333c7.381 0 14.251 3.84 18.176 10.112 3.883 6.272 4.224 14.165 0.896 20.736l-30.464 60.971c90.496 34.603 160.725 209.493 160.725 303.659zM746.667 725.334c11.776 0 21.333-9.557 21.333-21.333s-9.557-21.333-21.333-21.333-21.333 9.557-21.333 21.333c0 11.776 9.557 21.333 21.333 21.333zM746.667 554.667c11.776 0 21.333-9.557 21.333-21.333s-9.557-21.333-21.333-21.333-21.333 9.557-21.333 21.333c0 11.776 9.557 21.333 21.333 21.333zM661.333 469.334c11.776 0 21.333-9.557 21.333-21.333s-9.557-21.333-21.333-21.333-21.333 9.557-21.333 21.333c0 11.776 9.557 21.333 21.333 21.333zM576 341.334c-11.776 0-21.333 9.557-21.333 21.333s9.557 21.333 21.333 21.333 21.333-9.557 21.333-21.333c0-11.776-9.557-21.333-21.333-21.333zM725.333 362.667c0 11.776 9.557 21.333 21.333 21.333s21.333-9.557 21.333-21.333c0-11.776-9.557-21.333-21.333-21.333s-21.333 9.557-21.333 21.333zM640 704c0 129.408-105.301 234.667-234.667 234.667s-234.667-105.259-234.667-234.667c0-109.227 90.965-321.579 202.965-357.035l-30.037-60.075c-3.285-6.613-2.944-14.464 0.896-20.736 3.925-6.315 10.795-10.155 18.176-10.155h21.333v-320c0-11.776 9.557-21.333 21.333-21.333s21.333 9.557 21.333 21.333v320h21.333c7.381 0 14.251 3.84 18.176 10.112 3.883 6.272 4.224 14.165 0.896 20.736l-30.037 60.075c112 35.499 202.965 247.851 202.965 357.077zM576 810.667c11.776 0 21.333-9.557 21.333-21.333s-9.557-21.333-21.333-21.333-21.333 9.557-21.333 21.333c0 11.776 9.557 21.333 21.333 21.333zM576 640c11.776 0 21.333-9.557 21.333-21.333s-9.557-21.333-21.333-21.333-21.333 9.557-21.333 21.333c0 11.776 9.557 21.333 21.333 21.333zM234.667 597.334c-11.776 0-21.333 9.557-21.333 21.333s9.557 21.333 21.333 21.333 21.333-9.557 21.333-21.333c0-11.776-9.557-21.333-21.333-21.333zM234.667 768c-11.776 0-21.333 9.557-21.333 21.333s9.557 21.333 21.333 21.333 21.333-9.557 21.333-21.333c0-11.776-9.557-21.333-21.333-21.333zM405.333 810.667c11.776 0 21.333-9.557 21.333-21.333s-9.557-21.333-21.333-21.333-21.333 9.557-21.333 21.333c0 11.776 9.557 21.333 21.333 21.333zM405.333 640c11.776 0 21.333-9.557 21.333-21.333s-9.557-21.333-21.333-21.333-21.333 9.557-21.333 21.333c0 11.776 9.557 21.333 21.333 21.333zM405.333 469.334c11.776 0 21.333-9.557 21.333-21.333s-9.557-21.333-21.333-21.333-21.333 9.557-21.333 21.333c0 11.776 9.557 21.333 21.333 21.333zM320 512c-11.776 0-21.333 9.557-21.333 21.333s9.557 21.333 21.333 21.333 21.333-9.557 21.333-21.333c0-11.776-9.557-21.333-21.333-21.333zM320 682.667c-11.776 0-21.333 9.557-21.333 21.333s9.557 21.333 21.333 21.333 21.333-9.557 21.333-21.333c0-11.776-9.557-21.333-21.333-21.333zM320 853.334c-11.776 0-21.333 9.557-21.333 21.333s9.557 21.333 21.333 21.333 21.333-9.557 21.333-21.333c0-11.776-9.557-21.333-21.333-21.333zM490.667 512c-11.776 0-21.333 9.557-21.333 21.333s9.557 21.333 21.333 21.333 21.333-9.557 21.333-21.333c0-11.776-9.557-21.333-21.333-21.333zM490.667 682.667c-11.776 0-21.333 9.557-21.333 21.333s9.557 21.333 21.333 21.333 21.333-9.557 21.333-21.333c0-11.776-9.557-21.333-21.333-21.333zM490.667 853.334c-11.776 0-21.333 9.557-21.333 21.333s9.557 21.333 21.333 21.333 21.333-9.557 21.333-21.333c0-11.776-9.557-21.333-21.333-21.333z" />
<glyph unicode="&#xe932;" glyph-name="Baloon" d="M490.667 597.334h-21.333v-42.667h21.333c11.733 0 21.333 9.557 21.333 21.333s-9.6 21.333-21.333 21.333zM490.667 512h-21.333v-42.667h21.333c11.733 0 21.333 9.557 21.333 21.333s-9.6 21.333-21.333 21.333zM853.333 576c0 216.917-145.749 362.667-362.667 362.667s-362.667-145.749-362.667-362.667c0-202.752 202.027-431.147 321.28-480.555l-59.051-59.051c-6.101-6.101-7.936-15.275-4.608-23.253s11.093-13.141 19.712-13.141h64v-64c0-11.776 9.557-21.333 21.333-21.333s21.333 9.557 21.333 21.333v64h64c8.619 0 16.427 5.205 19.712 13.184s1.451 17.152-4.608 23.253l-59.051 59.051c119.253 49.365 321.28 277.76 321.28 480.512zM384 448c0-11.776-9.557-21.333-21.333-21.333s-21.333 9.557-21.333 21.333v21.333h-42.667v-21.333c0-11.776-9.557-21.333-21.333-21.333s-21.333 9.557-21.333 21.333v170.667c0 11.776 9.557 21.333 21.333 21.333s21.333-9.557 21.333-21.333v-106.667h42.667v106.667c0 11.776 9.557 21.333 21.333 21.333s21.333-9.557 21.333-21.333v-170.667zM554.667 490.667c0-35.285-28.715-64-64-64h-42.667c-11.776 0-21.333 9.557-21.333 21.333v170.667c0 11.776 9.557 21.333 21.333 21.333h42.667c35.285 0 64-28.715 64-64 0-16.384-6.187-31.317-16.341-42.667 10.155-11.349 16.341-26.283 16.341-42.667zM597.333 448v170.667c0 11.776 9.557 21.333 21.333 21.333 58.837 0 106.667-47.872 106.667-106.667s-47.829-106.667-106.667-106.667c-11.776 0-21.333 9.557-21.333 21.333zM640 593.707v-120.704c24.832 8.832 42.667 32.555 42.667 60.373s-17.835 51.499-42.667 60.331z" />
<glyph unicode="&#xe933;" glyph-name="Banknote" d="M512 420.822v-76.928c24.533 6.016 42.667 21.803 42.667 39.936 0 16.939-14.251 28.8-42.667 36.992zM426.667 511.83c0-16.981 14.251-28.8 42.667-36.992v76.928c-24.533-6.016-42.667-21.803-42.667-39.936zM973.739 741.675c-4.821 4.053-11.221 6.016-17.408 4.651l-19.883-3.456c-146.731-25.6-295.381-24.363-441.813 3.413-151.552 28.8-305.28 30.037-457.088 3.499l-19.883-3.456c-10.197-1.749-17.664-10.624-17.664-20.992v-554.667c0-6.272 2.773-12.288 7.595-16.341s11.179-5.888 17.408-4.651l19.883 3.456c146.773 25.6 295.424 24.405 441.813-3.413 78.976-15.019 158.549-22.528 238.123-22.528 73.131 0 146.261 6.315 218.965 19.029l19.883 3.456c10.197 1.749 17.664 10.624 17.664 20.992v554.667c0 6.272-2.773 12.288-7.595 16.341zM277.333 618.667c-0.128 0-0.256 0-0.341 0-41.941 0.683-84.309-0.768-125.867-4.352-0.64-0.043-1.237-0.085-1.877-0.085-10.965 0-20.267 8.363-21.205 19.499-0.981 11.733 7.68 22.101 19.413 23.083 43.051 3.712 87.040 5.376 130.219 4.523 11.776-0.213 21.205-9.899 20.992-21.675-0.213-11.648-9.728-20.992-21.333-20.992zM512 300.246v-1.579c0-11.776-9.557-21.333-21.333-21.333s-21.333 9.557-21.333 21.333v1.493c-46.677 7.296-81.92 38.315-85.248 77.781-0.981 11.733 7.723 22.059 19.456 23.040 10.539 0.896 22.101-7.68 23.040-19.456 1.451-17.323 19.243-32 42.752-37.717v86.997c-57.344 14.037-85.333 40.96-85.333 81.024 0 41.173 36.693 75.648 85.333 83.584v1.92c0 11.776 9.557 21.333 21.333 21.333s21.333-9.557 21.333-21.333v-1.835c46.677-7.296 81.92-38.315 85.248-77.781 0.981-11.733-7.723-22.059-19.456-23.040-10.837-0.512-22.101 7.723-23.040 19.456-1.451 17.323-19.243 32-42.752 37.717v-86.955c57.387-14.165 85.333-41.088 85.333-81.067 0-41.173-36.693-75.648-85.333-83.584zM833.323 239.318c-36.309-3.115-72.875-4.651-109.013-4.651-6.912 0-13.781 0.043-20.693 0.171-11.733 0.213-21.163 9.899-20.949 21.717 0.213 11.733 10.752 20.224 21.717 20.949 41.344-0.725 83.584 0.768 125.312 4.352 11.477 1.109 22.101-7.68 23.083-19.413s-7.723-22.101-19.456-23.125z" />
<glyph unicode="&#xe934;" glyph-name="Bar-Chart-2" d="M1002.667-42.666h-21.333v618.667c0 11.776-9.557 21.333-21.333 21.333h-128c-11.776 0-21.333-9.557-21.333-21.333v-618.667h-85.333v362.667c0 11.776-9.557 21.333-21.333 21.333h-128c-11.776 0-21.333-9.557-21.333-21.333v-362.667h-85.333v448c0 11.776-9.557 21.333-21.333 21.333h-128c-11.776 0-21.333-9.557-21.333-21.333v-448h-85.333v234.667c0 11.776-9.557 21.333-21.333 21.333h-128c-11.776 0-21.333-9.557-21.333-21.333v-234.667h-21.333c-11.776 0-21.333-9.557-21.333-21.333s9.557-21.333 21.333-21.333h981.333c11.776 0 21.333 9.557 21.333 21.333s-9.557 21.333-21.333 21.333zM128 384c47.061 0 85.333 38.272 85.333 85.333 0 14.976-4.224 28.885-11.051 41.131l130.688 104.235c14.293-10.752 31.829-17.365 51.029-17.365 31.275 0 58.411 17.109 73.259 42.283l98.859-28.203c-0.811-4.608-1.451-9.259-1.451-14.080 0-47.061 38.272-85.333 85.333-85.333s85.333 38.272 85.333 85.333c0 15.787-4.608 30.379-12.075 43.093l139.691 139.691c12.672-7.509 27.264-12.117 43.051-12.117 47.061 0 85.333 38.272 85.333 85.333s-38.272 85.333-85.333 85.333-85.333-38.272-85.333-85.333c0-15.787 4.608-30.379 12.075-43.093l-139.648-139.648c-12.715 7.467-27.307 12.075-43.093 12.075-26.752 0-50.389-12.629-66.048-31.957l-104.832 29.909c0 0.683 0.213 1.323 0.213 2.048 0 47.061-38.272 85.333-85.333 85.333s-85.333-38.272-85.333-85.333c0-12.416 2.773-24.107 7.552-34.731l-133.333-106.368c-13.056 8.192-28.373 13.099-44.885 13.099-47.061 0-85.333-38.272-85.333-85.333s38.272-85.333 85.333-85.333z" />
<glyph unicode="&#xe935;" glyph-name="Bar-Chart" d="M1002.667-42.666h-960v960c0 11.776-9.557 21.333-21.333 21.333s-21.333-9.557-21.333-21.333v-981.333c0-11.776 9.557-21.333 21.333-21.333h981.333c11.776 0 21.333 9.557 21.333 21.333s-9.557 21.333-21.333 21.333zM106.667-0h213.333c11.776 0 21.333 9.557 21.333 21.333v384c0 11.776-9.557 21.333-21.333 21.333h-213.333c-11.776 0-21.333-9.557-21.333-21.333v-384c0-11.776 9.557-21.333 21.333-21.333zM448-0h213.333c11.776 0 21.333 9.557 21.333 21.333v640c0 11.776-9.557 21.333-21.333 21.333h-213.333c-11.776 0-21.333-9.557-21.333-21.333v-640c0-11.776 9.557-21.333 21.333-21.333zM1002.667 938.667h-213.333c-11.776 0-21.333-9.557-21.333-21.333v-896c0-11.776 9.557-21.333 21.333-21.333h213.333c11.776 0 21.333 9.557 21.333 21.333v896c0 11.776-9.557 21.333-21.333 21.333z" />
</font>
</defs>
</svg>
